<?xml version="1.0" standalone="no"?>
<!DOCTYPE svg PUBLIC "-//W3C//DTD SVG 1.1//EN" "http://www.w3.org/Graphics/SVG/1.1/DTD/svg11.dtd" >
<svg xmlns="http://www.w3.org/2000/svg" xmlns:xlink="http://www.w3.org/1999/xlink" version="1.1">
<metadata>
Created by FontForge 20190801 at Wed Feb 16 12:57:25 2022
 By www-data
Copyright 2014 The Nunito Project Authors (https://github.com/googlefonts/nunito)
</metadata>
<defs>
<font id="NunitoRegular" horiz-adv-x="0" >
  <font-face 
    font-family="NunitoRegular"
    font-weight="400"
    font-stretch="normal"
    units-per-em="1000"
    panose-1="0 0 0 0 0 0 0 0 0 0"
    ascent="800"
    descent="-200"
    x-height="486"
    cap-height="705"
    bbox="-244.765 -277 1301 1047"
    underline-thickness="28"
    underline-position="-94"
    unicode-range="U+000D-FB02"
  />
<missing-glyph horiz-adv-x="500" 
d="M50 -180v885h400v-885h-400zM100 -130h300v785h-300v-785z" />
    <glyph glyph-name="fi" unicode="fi" horiz-adv-x="559" 
d="M142 -7q-19 0 -29.5 11t-10.5 31v388h-64q-16 0 -25.5 8.5t-9.5 23.5t9.5 23t25.5 8h86l-22 -21v38q0 94 45.5 144t134.5 57l30 3q15 1 24 -4.5t11.5 -14.5t0.5 -19t-8.5 -17t-15.5 -8l-30 -2q-59 -4 -85 -36.5t-26 -92.5v-42l-12 15h272q19 0 29.5 -11t10.5 -32v-404
q0 -21 -10 -32.5t-30 -11.5t-30.5 11.5t-10.5 32.5v384h-219v-388q0 -42 -41 -42zM444 603q-25 0 -38.5 13.5t-13.5 36.5q0 24 13.5 36.5t38.5 12.5t38.5 -12.5t13.5 -36.5q0 -23 -13.5 -36.5t-38.5 -13.5z" />
    <glyph glyph-name="fl" unicode="fl" horiz-adv-x="629" 
d="M142 -7q-19 0 -29.5 11t-10.5 31v388h-64q-16 0 -25.5 8.5t-9.5 23.5t9.5 23t25.5 8h86l-22 -21v38q0 95 46.5 145t136.5 58l29 3q14 1 22.5 -5t11 -15t0.5 -18.5t-9 -16.5t-17 -8l-23 -2q-61 -5 -88.5 -37t-27.5 -94v-42l-12 15h120q17 0 26 -8t9 -23t-9 -23.5t-26 -8.5
h-108v-388q0 -42 -41 -42zM557 -9q-72 0 -110 44t-38 126v510q0 20 10 30.5t30 10.5q19 0 30 -10.5t11 -30.5v-504q0 -54 21.5 -80.5t63.5 -26.5q9 0 16 1t14 1q11 1 15.5 -5t4.5 -24t-8 -27t-26 -12q-8 -1 -17 -2t-17 -1z" />
    <glyph glyph-name=".notdef" horiz-adv-x="500" 
d="M50 -180v885h400v-885h-400zM100 -130h300v785h-300v-785z" />
    <glyph glyph-name=".null" 
 />
    <glyph glyph-name="nonmarkingreturn" horiz-adv-x="333" 
 />
    <glyph glyph-name="NULL" 
 />
    <glyph glyph-name="NULL" 
 />
    <glyph glyph-name="CR" unicode="&#xd;" horiz-adv-x="258" 
 />
    <glyph glyph-name="space" unicode=" " horiz-adv-x="258" 
 />
    <glyph glyph-name="exclam" unicode="!" horiz-adv-x="228" 
d="M115 179q-12 0 -19.5 8t-8.5 24l-20 448q-1 24 11.5 38.5t36.5 14.5q23 0 35 -14.5t11 -38.5l-20 -448q0 -16 -7 -24t-19 -8zM115 -4q-25 0 -40 15.5t-15 39.5t15 39.5t40 15.5t39.5 -15.5t14.5 -39.5t-14.5 -39.5t-39.5 -15.5z" />
    <glyph glyph-name="quotedbl" unicode="&#x22;" horiz-adv-x="392" 
d="M111 421q-11 0 -19.5 8.5t-10.5 23.5l-14 210q-2 21 10.5 35t33.5 14q14 0 24 -6.5t15.5 -17.5t4.5 -25l-14 -210q-1 -15 -9 -23.5t-21 -8.5zM282 421q-11 0 -19.5 8.5t-10.5 23.5l-14 210q-2 21 10.5 35t33.5 14q14 0 24 -6.5t15.5 -17.5t4.5 -25l-14 -210
q-1 -15 -9 -23.5t-21 -8.5z" />
    <glyph glyph-name="numbersign" unicode="#" horiz-adv-x="600" 
d="M120 -7q-16 0 -22.5 10.5t-2.5 28.5l30 157l29 -7h-85q-11 0 -19.5 3.5t-12.5 10t-4 15.5q0 15 9.5 22.5t26.5 7.5h96l-32 -8l49 249l24 -10h-117q-11 0 -19.5 3.5t-12.5 10.5t-4 16q0 15 9.5 22t26.5 7h127l-27 -7l30 155q4 18 13.5 25.5t24.5 7.5t21.5 -10.5t2.5 -28.5
l-27 -142h159l28 148q4 18 14 25.5t24 7.5q15 0 21.5 -10.5t3.5 -28.5l-29 -149l-24 7h80q12 0 20 -3.5t12 -9.5t4 -16q0 -14 -9 -22t-27 -8h-91l27 10l-48 -249l-25 8h117q12 0 20 -3.5t12 -10t4 -16.5q0 -14 -9 -21.5t-27 -7.5h-127l27 7l-32 -163q-3 -18 -12.5 -25.5
t-24.5 -7.5t-22 10.5t-4 28.5l29 150h-158l-30 -156q-3 -18 -12.5 -25.5t-24.5 -7.5zM198 241h158l46 231h-159z" />
    <glyph glyph-name="dollar" unicode="$" horiz-adv-x="600" 
d="M310 -122q-15 0 -24.5 10t-9.5 24v100l18 -17q-70 1 -128 19.5t-98 47.5q-11 8 -15.5 19.5t-2 22.5t10 19t18.5 9.5t25 -7.5q33 -23 80 -40t117 -17q58 0 95 15t55 42t18 63q0 28 -13 49t-41 36t-75 25l-100 21q-91 20 -135 65.5t-44 119.5q0 58 28.5 103.5t79.5 72
t119 29.5l-12 -14v98q0 14 9.5 24t24.5 10q14 0 24 -10t10 -24v-98l-13 14q47 -1 99.5 -20t89.5 -54q10 -9 12.5 -19.5t-1 -20t-11 -16t-19 -7t-24.5 8.5q-33 27 -73.5 41.5t-97.5 14.5q-75 0 -119.5 -36t-44.5 -95q0 -46 28 -73.5t91 -40.5l101 -22q98 -21 144 -63.5
t46 -114.5q0 -57 -29 -99.5t-79 -67t-116 -29.5l16 17v-101q0 -14 -9.5 -24t-24.5 -10z" />
    <glyph glyph-name="percent" unicode="%" horiz-adv-x="930" 
d="M300 -1q-7 -13 -17 -17.5t-20 -2t-17 10t-8.5 18.5t5.5 24l386 672q7 13 17 17.5t20 2t17 -10.5t8.5 -19t-5.5 -23zM226 282q-80 0 -125 57t-45 159q0 68 20.5 116t58.5 73.5t91 25.5q79 0 124.5 -56.5t45.5 -158.5q0 -68 -20.5 -116t-58.5 -74t-91 -26zM226 341
q31 0 53.5 18t34.5 53t12 86q0 78 -27 117t-73 39q-31 0 -53.5 -17.5t-34.5 -52t-12 -86.5q0 -78 26.5 -117.5t73.5 -39.5zM704 -9q-79 0 -124.5 57t-45.5 159q0 68 20.5 116t59 73.5t90.5 25.5q80 0 125 -56.5t45 -158.5q0 -68 -20 -116.5t-58 -74t-92 -25.5zM704 50
q32 0 54 17.5t34 52.5t12 87q0 78 -26.5 117t-73.5 39q-31 0 -53.5 -17.5t-34 -52t-11.5 -86.5q0 -79 26.5 -118t72.5 -39z" />
    <glyph glyph-name="ampersand" unicode="&#x26;" horiz-adv-x="693" 
d="M287 -9q-70 0 -121 22.5t-77.5 62.5t-26.5 93q0 34 9 62.5t27.5 54t46.5 49.5t65 49l32 21l-11 -17q-48 52 -67.5 90.5t-19.5 79.5q0 46 21 81.5t60.5 55t91.5 19.5q70 0 114 -38.5t44 -104.5q0 -36 -14 -67.5t-47 -63t-92 -66.5l2 21l187 -210h-18q14 24 24.5 55
t18 67.5t10.5 77.5q2 17 11 26t26 9t26 -10t7 -29q-4 -50 -14 -95t-26 -83.5t-36 -70.5l-1 24l99 -109q13 -13 12.5 -25.5t-10 -20.5t-25.5 -8q-14 0 -23 5.5t-21 16.5l-76 86h21q-42 -52 -101 -81t-128 -29zM291 58q57 0 101.5 24t77.5 70l-1 -25l-212 232l32 -3l-31 -20
q-43 -28 -68.5 -52.5t-36.5 -50.5t-11 -58q0 -55 38 -86t111 -31zM317 651q-43 0 -70 -25t-27 -66q0 -22 6.5 -40.5t23.5 -41t47 -57.5l-21 -1q48 31 76 54.5t40 45.5t12 47q0 39 -24 61.5t-63 22.5z" />
    <glyph glyph-name="quotesingle" unicode="'" horiz-adv-x="221" 
d="M111 421q-11 0 -19.5 8.5t-10.5 23.5l-14 210q-2 21 10.5 35t33.5 14q14 0 24 -6.5t15.5 -17.5t4.5 -25l-14 -210q-1 -15 -9 -23.5t-21 -8.5z" />
    <glyph glyph-name="parenleft" unicode="(" horiz-adv-x="317" 
d="M210 -169q-56 103 -82 211.5t-26 220.5q0 75 11.5 148t35.5 144t61 140q7 13 19.5 16t24 -1.5t16.5 -17t-2 -31.5q-26 -66 -44 -132t-27 -132t-9 -134t9.5 -134t27.5 -131.5t43 -132.5q8 -19 2.5 -31.5t-17 -17t-24 -1.5t-19.5 16z" />
    <glyph glyph-name="parenright" unicode=")" horiz-adv-x="317" 
d="M108 -169q-8 -13 -20 -16t-24 2t-17 17t2 31q27 67 44.5 132.5t26.5 131.5t9 134t-9.5 134t-27 131.5t-43.5 132.5q-7 19 -1.5 31.5t16.5 17t23.5 1.5t20.5 -16q55 -102 81 -211t26 -221q0 -75 -11.5 -148.5t-35 -144.5t-60.5 -139z" />
    <glyph glyph-name="asterisk" unicode="*" horiz-adv-x="450" 
d="M128 368q-13 7 -14.5 20t7.5 28l70 110l11 -16l-131 -5q-18 0 -28.5 7.5t-10.5 22.5q0 14 10.5 21.5t28.5 6.5l131 -5l-11 -15l-69 111q-10 15 -8 28t14 20t24.5 1t20.5 -22l57 -110h-10l57 110q9 16 21.5 22t24.5 -1q12 -8 13.5 -21t-8.5 -28l-69 -110l-11 15l131 5
q18 1 28.5 -6.5t10.5 -21.5q0 -15 -10.5 -22.5t-28.5 -7.5l-131 5l11 16l69 -110q10 -15 8.5 -27.5t-13.5 -19.5q-13 -8 -25.5 -2t-20.5 21l-57 110h10l-58 -110q-8 -16 -20 -22t-24 2z" />
    <glyph glyph-name="plus" unicode="+" horiz-adv-x="600" 
d="M300 33q-16 0 -24 9t-8 24v190h-187q-15 0 -23.5 8t-8.5 23t8.5 23t23.5 8h187v184q0 16 8 24.5t24 8.5t24 -8.5t8 -24.5v-184h187q15 0 23.5 -8t8.5 -23t-8.5 -23t-23.5 -8h-187v-190q0 -15 -8 -24t-24 -9z" />
    <glyph glyph-name="comma" unicode="," horiz-adv-x="228" 
d="M124 -95q-10 -13 -21 -15t-19 4t-8.5 17t9.5 24q16 21 22 42.5t6 39.5l4 -21q-26 0 -41.5 15.5t-15.5 39.5t14.5 39.5t38.5 15.5q26 0 41 -17.5t15 -50.5q0 -21 -4 -43.5t-14 -45.5t-27 -44z" />
    <glyph glyph-name="hyphen" unicode="-" horiz-adv-x="424" 
d="M100 233q-15 0 -25 9.5t-10 23.5q0 15 10 24.5t25 9.5h225q14 0 24 -9.5t10 -24.5q0 -14 -10 -23.5t-24 -9.5h-225z" />
    <glyph glyph-name="period" unicode="." horiz-adv-x="228" 
d="M115 -4q-25 0 -40 15.5t-15 39.5t15 39.5t40 15.5t39.5 -15.5t14.5 -39.5t-14.5 -39.5t-39.5 -15.5z" />
    <glyph glyph-name="slash" unicode="/" horiz-adv-x="283" 
d="M55 -34q-5 -13 -13.5 -19t-19.5 -6t-19.5 5.5t-12.5 15.5t0 23l238 738q5 13 14 19t19.5 6t19 -5.5t12 -15.5t-0.5 -23z" />
    <glyph glyph-name="zero" unicode="0" horiz-adv-x="600" 
d="M300 -9q-121 0 -184 93t-63 269q0 118 28 198.5t83.5 121.5t135.5 41q122 0 184.5 -91.5t62.5 -268.5q0 -118 -28 -199t-83 -122.5t-136 -41.5zM300 62q84 0 124.5 71.5t40.5 220.5q0 150 -40.5 219.5t-124.5 69.5q-83 0 -124 -70t-41 -219t41 -220.5t124 -71.5z" />
    <glyph glyph-name="one" unicode="1" horiz-adv-x="600" 
d="M155 0q-18 0 -28 9.5t-10 26.5t10 25.5t28 8.5h130v567h43l-145 -96q-13 -7 -24.5 -6t-19 8.5t-10.5 18t1 22t17 19.5l138 91q13 8 25 13t24 5q14 0 23.5 -8.5t9.5 -26.5v-607h120q18 0 28 -8.5t10 -25.5q0 -18 -10 -27t-28 -9h-332z" />
    <glyph glyph-name="two" unicode="2" horiz-adv-x="600" 
d="M129 0q-22 0 -32.5 10.5t-10.5 28.5q0 11 5.5 21.5t15.5 21.5l224 240q51 55 73.5 101.5t22.5 94.5q0 60 -36.5 91.5t-106.5 31.5q-45 0 -85 -14t-77 -43q-13 -10 -23.5 -9t-18.5 8t-11 18t0.5 22t15.5 20q39 32 94 51.5t112 19.5q71 0 120 -22t74 -64.5t25 -103.5
q0 -42 -13.5 -82.5t-41 -82.5t-71.5 -87l-213 -225v23h337q19 0 28.5 -8.5t9.5 -25.5q0 -18 -9.5 -27t-28.5 -9h-379z" />
    <glyph glyph-name="three" unicode="3" horiz-adv-x="600" 
d="M292 -9q-58 0 -116.5 17t-101.5 50q-13 9 -17 20.5t-1.5 22t10.5 18t19.5 8.5t25.5 -8q44 -29 88 -42t91 -13q51 0 86 15t53 44.5t18 72.5q0 62 -41 94t-119 32h-71q-19 0 -29 9.5t-10 26.5q0 16 10 25.5t29 9.5h64q46 0 78.5 16t50.5 45.5t18 71.5q0 56 -36 85.5
t-104 29.5q-45 0 -85 -13t-79 -44q-12 -9 -23.5 -8.5t-19 7t-11 17.5t0.5 22.5t17 21.5q40 34 94 52t111 18q68 0 116.5 -21.5t74.5 -62t26 -97.5q0 -43 -16.5 -78.5t-46 -60.5t-71.5 -36v11q73 -12 113.5 -59.5t40.5 -119.5q0 -61 -28.5 -105.5t-81.5 -69t-127 -24.5z" />
    <glyph glyph-name="four" unicode="4" horiz-adv-x="600" 
d="M418 -7q-19 0 -30 11t-11 31v116h-287q-20 0 -31.5 9.5t-11.5 27.5q0 11 5 22.5t18 29.5l305 444q9 14 20 21t26 7q16 0 27.5 -10t11.5 -32v-449h73q19 0 29 -9t10 -26t-10 -26t-29 -9h-73v-116q0 -20 -11 -31t-31 -11zM377 221v388h24l-280 -410v22h256z" />
    <glyph glyph-name="five" unicode="5" horiz-adv-x="600" 
d="M315 -9q-57 0 -113.5 17t-102.5 53q-12 8 -16 19t-1 22t11 18.5t19.5 8.5t24.5 -8q41 -29 85 -43t92 -14q49 0 84.5 18.5t54 52t18.5 78.5q0 69 -40 113t-110 44q-43 0 -79 -16t-66 -51q-7 -8 -16.5 -13.5t-21.5 -5.5q-17 0 -26.5 9.5t-9.5 25.5v348q0 19 10 28.5t28 9.5
h340q19 0 28.5 -9t9.5 -26t-9.5 -26t-28.5 -9h-297v-281h-22q26 42 72 64.5t103 22.5q67 0 115.5 -28t75 -78.5t26.5 -117.5q0 -66 -29 -117t-82 -80t-127 -29z" />
    <glyph glyph-name="six" unicode="6" horiz-adv-x="600" 
d="M324 -9q-83 0 -141.5 40.5t-88.5 117.5t-30 186q0 92 19 162t56 118.5t90 73.5t120 25q46 0 94.5 -18t85.5 -51q11 -8 13.5 -19.5t-0.5 -22t-10.5 -17.5t-18.5 -7.5t-23 8.5q-34 29 -70 41.5t-73 12.5q-65 0 -110.5 -32t-69 -96.5t-23.5 -161.5v-93h-9q6 57 33.5 98.5
t70.5 63.5t97 22q62 0 110 -28t75 -78.5t27 -115.5q0 -66 -28 -118t-79 -81.5t-117 -29.5zM319 61q44 0 78 19.5t53 55t19 81.5t-19 81t-53 55t-78 20t-78 -20t-53 -55t-19 -81t19 -81.5t53 -55t78 -19.5z" />
    <glyph glyph-name="seven" unicode="7" horiz-adv-x="600" 
d="M168 -7q-14 0 -24 7t-12.5 19.5t5.5 27.5l321 623v-36h-360q-18 0 -28 9.5t-10 26.5t10 26t28 9h397q18 0 29 -9t11 -26q0 -14 -3.5 -24.5t-9.5 -23.5l-308 -601q-7 -14 -18 -21t-28 -7z" />
    <glyph glyph-name="eight" unicode="8" horiz-adv-x="600" 
d="M300 -9q-79 0 -135.5 23t-86 67t-29.5 106q0 49 20 87.5t56 62.5t83 30v-15q-65 14 -103.5 61.5t-38.5 112.5q0 60 28.5 101.5t81.5 64t124 22.5q72 0 124.5 -22.5t81.5 -64t29 -101.5q0 -43 -17.5 -79.5t-49.5 -60.5t-75 -33v14q71 -10 114.5 -58.5t43.5 -121.5
q0 -62 -29.5 -106t-86 -67t-135.5 -23zM300 59q85 0 128.5 33t43.5 100q0 66 -43.5 98.5t-128.5 32.5q-84 0 -128 -32.5t-44 -98.5q0 -67 44 -100t128 -33zM300 391q49 0 83.5 15.5t53.5 44.5t19 68q0 60 -41.5 93.5t-114.5 33.5t-114 -33.5t-41 -93.5t41 -94t114 -34z" />
    <glyph glyph-name="nine" unicode="9" horiz-adv-x="600" 
d="M251 -9q-45 0 -94 18t-86 52q-11 8 -13.5 19t0.5 21.5t10.5 18t18.5 8t23 -8.5q34 -29 70 -42t73 -13q65 0 110.5 32t69 97t23.5 161v93h9q-6 -56 -33.5 -98t-70.5 -64t-97 -22q-62 0 -110 28t-75 79t-27 115q0 67 28.5 118.5t79 81t116.5 29.5q83 0 141.5 -40.5
t88.5 -117.5t30 -186q0 -92 -19 -162t-56 -118.5t-90 -73.5t-120 -25zM281 332q45 0 79 20t53 55.5t19 81.5t-19 81t-53 55t-79 20q-44 0 -77.5 -20t-53 -55t-19.5 -81t19.5 -81.5t53 -55.5t77.5 -20z" />
    <glyph glyph-name="colon" unicode=":" horiz-adv-x="228" 
d="M115 -4q-25 0 -40 15.5t-15 39.5t15 39.5t40 15.5t39.5 -15.5t14.5 -39.5t-14.5 -39.5t-39.5 -15.5zM115 380q-25 0 -40 16t-15 39q0 25 15 40t40 15t39.5 -15t14.5 -40q0 -23 -14.5 -39t-39.5 -16z" />
    <glyph glyph-name="semicolon" unicode=";" horiz-adv-x="228" 
d="M124 -95q-10 -13 -21 -15t-19 4t-8.5 17t9.5 24q16 21 22 42.5t6 39.5l4 -21q-26 0 -41.5 15.5t-15.5 39.5t14.5 39.5t38.5 15.5q26 0 41 -17.5t15 -50.5q0 -21 -4 -43.5t-14 -45.5t-27 -44zM115 380q-25 0 -40 16t-15 39q0 25 15 40t40 15t39.5 -15t14.5 -40
q0 -23 -14.5 -39t-39.5 -16z" />
    <glyph glyph-name="less" unicode="&#x3c;" horiz-adv-x="600" 
d="M512 49l-425 193q-33 14 -33 45q0 16 8.5 27t24.5 18l425 193q13 6 22.5 3t15.5 -10.5t6.5 -17.5t-3.5 -18.5t-17 -14.5l-447 -200v40l447 -200q13 -6 17 -14.5t3.5 -18.5t-6.5 -17.5t-15.5 -10t-22.5 2.5z" />
    <glyph glyph-name="equal" unicode="=" horiz-adv-x="600" 
d="M81 356q-15 0 -23.5 8t-8.5 23t8.5 23t23.5 8h438q15 0 23.5 -8t8.5 -23t-8.5 -23t-23.5 -8h-438zM81 157q-15 0 -23.5 8t-8.5 23t8.5 22.5t23.5 7.5h438q15 0 23.5 -7.5t8.5 -22.5q0 -16 -8.5 -23.5t-23.5 -7.5h-438z" />
    <glyph glyph-name="greater" unicode="&#x3e;" horiz-adv-x="600" 
d="M88 49q-12 -5 -22 -2.5t-15.5 10t-6.5 17.5t4 18.5t16 14.5l448 200v-40l-448 200q-11 6 -16 14.5t-4 18.5t6.5 17.5t15.5 10.5t22 -3l426 -193q32 -14 32 -45q0 -15 -8 -26.5t-24 -18.5z" />
    <glyph glyph-name="question" unicode="?" horiz-adv-x="443" 
d="M209 180q-13 0 -20 8.5t-7 23.5q0 35 8.5 65.5t27 62.5t50.5 69q25 30 40 53t21.5 44.5t6.5 43.5q0 42 -30 66.5t-83 24.5q-46 0 -84.5 -13.5t-74.5 -40.5q-15 -10 -27.5 -10t-20.5 7t-10.5 18t3 23t19.5 22q39 31 92 49t107 18q57 0 100.5 -19.5t67.5 -55t24 -83.5
q0 -31 -9 -59.5t-28.5 -57.5t-54.5 -66q-31 -32 -50 -59.5t-28.5 -53t-12.5 -53.5q-1 -12 -8 -19.5t-19 -7.5zM208 -4q-25 0 -40.5 15.5t-15.5 39.5t15.5 39.5t40.5 15.5t39.5 -15.5t14.5 -39.5t-14.5 -39.5t-39.5 -15.5z" />
    <glyph glyph-name="at" unicode="@" horiz-adv-x="946" 
d="M485 -163q-96 0 -174 30.5t-134 87.5t-86 137.5t-30 180.5q0 98 31.5 179t90 139.5t138.5 90.5t177 32q116 0 203 -46.5t135.5 -129.5t48.5 -194q0 -87 -24 -151t-66.5 -99t-99.5 -35q-60 0 -90.5 34.5t-26.5 93.5l19 -5q-25 -60 -71 -91.5t-97 -31.5q-77 0 -119.5 48.5
t-42.5 133.5q0 73 28 130.5t77 90.5t111 33q54 0 89 -27t45 -76h-11l11 67q5 32 37 32q17 0 24.5 -9.5t4.5 -27.5l-40 -227q-2 -13 -3 -25t-1 -22q0 -33 15 -50t45 -17q39 0 67.5 29t45 81t16.5 121q0 95 -41.5 165t-115.5 109t-174 39q-111 0 -195 -48t-131 -134.5
t-47 -201.5q0 -119 44.5 -204t125.5 -130.5t191 -45.5q73 0 133 21t101 57q14 11 26 9.5t19 -10.5t5.5 -21t-14.5 -24q-46 -40 -115.5 -64t-154.5 -24zM438 117q45 0 79.5 27t54.5 74t20 107q0 56 -25 84t-77 28q-44 0 -79 -25t-55.5 -69t-20.5 -102q0 -60 27 -92t76 -32z
" />
    <glyph glyph-name="A" unicode="A" horiz-adv-x="729" 
d="M72 -7q-16 0 -25.5 7.5t-11 20t5.5 28.5l275 626q9 20 21.5 28.5t27.5 8.5t27.5 -8.5t20.5 -28.5l276 -626q8 -16 6.5 -29t-10.5 -20t-25 -7q-18 0 -29 9.5t-18 27.5l-74 171l40 -21h-430l41 21l-73 -171q-9 -19 -19 -28t-26 -9zM364 609l-161 -379l-24 19h370l-22 -19
l-161 379h-2z" />
    <glyph glyph-name="B" unicode="B" horiz-adv-x="676" 
d="M132 0q-22 0 -33.5 11.5t-11.5 33.5v615q0 22 11.5 33.5t33.5 11.5h237q73 0 123.5 -21.5t77.5 -62.5t27 -100q0 -66 -38.5 -110t-104.5 -58v14q75 -9 117.5 -54t42.5 -119q0 -94 -61 -144t-172 -50h-249zM167 66h206q80 0 120 32t40 97q0 66 -40 97.5t-120 31.5h-206
v-258zM167 390h190q78 0 118.5 32t40.5 92q0 62 -40.5 93.5t-118.5 31.5h-190v-249z" />
    <glyph glyph-name="C" unicode="C" horiz-adv-x="673" 
d="M392 -9q-104 0 -178 44t-113.5 125t-39.5 193q0 84 22.5 150.5t65 113t104.5 72t139 25.5q62 0 118 -17.5t97 -51.5q13 -10 17.5 -22.5t1 -24t-12 -19t-20.5 -7.5t-27 10q-36 29 -79 43t-93 14q-79 0 -134 -33.5t-83 -97.5t-28 -155t28 -155.5t83 -98t134 -33.5
q49 0 93 14.5t81 43.5q15 10 27 9.5t20 -7.5t11.5 -18t0 -23t-15.5 -21q-42 -36 -98.5 -54.5t-120.5 -18.5z" />
    <glyph glyph-name="D" unicode="D" horiz-adv-x="742" 
d="M132 0q-22 0 -33.5 11.5t-11.5 33.5v615q0 22 11.5 33.5t33.5 11.5h193q171 0 264 -90t93 -262q0 -86 -23.5 -151.5t-69.5 -110.5t-112 -68t-152 -23h-193zM169 70h150q70 0 121.5 18t86 53t51.5 88.5t17 123.5q0 141 -69 211.5t-207 70.5h-150v-565z" />
    <glyph glyph-name="E" unicode="E" horiz-adv-x="583" 
d="M132 0q-22 0 -33.5 11.5t-11.5 33.5v615q0 22 11.5 33.5t33.5 11.5h372q17 0 26 -9t9 -25q0 -17 -9 -26t-26 -9h-337v-244h316q17 0 26 -8.5t9 -25.5t-9 -26t-26 -9h-316v-254h337q17 0 26 -9t9 -25q0 -17 -9 -26t-26 -9h-372z" />
    <glyph glyph-name="F" unicode="F" horiz-adv-x="548" 
d="M131 -7q-21 0 -32.5 11.5t-11.5 33.5v622q0 22 11.5 33.5t33.5 11.5h363q17 0 26 -9t9 -25q0 -17 -9 -26t-26 -9h-326v-246h305q17 0 26.5 -9t9.5 -25q0 -17 -9.5 -26t-26.5 -9h-305v-283q0 -45 -38 -45z" />
    <glyph glyph-name="G" unicode="G" horiz-adv-x="726" 
d="M409 -9q-113 0 -190.5 43t-117.5 124t-40 194q0 84 22.5 151t66 113.5t106 72t141.5 25.5q63 0 122 -17.5t105 -55.5q12 -9 15 -20t-0.5 -22t-11 -18.5t-19 -8.5t-23.5 7q-41 32 -87 46.5t-102 14.5q-80 0 -135.5 -34t-84 -98t-28.5 -156q0 -140 65.5 -214t197.5 -74
q48 0 94 9.5t87 26.5l-18 -47v249h-143q-18 0 -27 9t-9 24q0 16 9 24t27 8h179q17 0 26 -9t9 -26v-261q0 -15 -5 -25t-17 -15q-42 -17 -100.5 -28.5t-113.5 -11.5z" />
    <glyph glyph-name="H" unicode="H" horiz-adv-x="761" 
d="M128 -7q-20 0 -30.5 11.5t-10.5 31.5v633q0 21 10.5 32t30.5 11t30.5 -11t10.5 -32v-276h423v276q0 21 10.5 32t30.5 11t30.5 -11t10.5 -32v-633q0 -20 -10.5 -31.5t-30.5 -11.5t-30.5 11.5t-10.5 31.5v286h-423v-286q0 -20 -10 -31.5t-31 -11.5z" />
    <glyph glyph-name="I" unicode="I" horiz-adv-x="257" 
d="M128 -7q-20 0 -30.5 11.5t-10.5 31.5v633q0 21 10.5 32t30.5 11t30.5 -11t10.5 -32v-633q0 -20 -10 -31.5t-31 -11.5z" />
    <glyph glyph-name="J" unicode="J" horiz-adv-x="324" 
d="M28 -6q-19 -1 -29.5 10t-10.5 27q0 12 7.5 22t23.5 11l31 2q51 4 78 35.5t27 86.5v482q0 21 10.5 31.5t30.5 10.5t30.5 -10.5t10.5 -31.5v-483q0 -57 -20 -98.5t-59.5 -64.5t-96.5 -27z" />
    <glyph glyph-name="K" unicode="K" horiz-adv-x="625" 
d="M128 -7q-20 0 -30.5 11.5t-10.5 31.5v634q0 21 10.5 31.5t30.5 10.5t30.5 -10.5t10.5 -31.5v-285h2l326 304q12 12 24 17.5t26 5.5q19 0 27.5 -9t6.5 -22t-14 -25l-341 -316l1 44l356 -329q15 -14 16 -28.5t-8.5 -24t-28.5 -9.5q-15 0 -25.5 6.5t-23.5 19.5l-342 313h-2
v-296q0 -20 -10 -31.5t-31 -11.5z" />
    <glyph glyph-name="L" unicode="L" horiz-adv-x="543" 
d="M129 0q-20 0 -31 11.5t-11 31.5v624q0 21 10.5 32t30.5 11t30.5 -11t10.5 -32v-595h328q18 0 28 -9.5t10 -26.5t-10 -26.5t-28 -9.5h-368z" />
    <glyph glyph-name="M" unicode="M" horiz-adv-x="855" 
d="M127 -7q-18 0 -28 10.5t-10 29.5v639q0 20 10 30t28 10q16 0 25.5 -6.5t17.5 -21.5l274 -516h-30l273 516q8 15 17 21.5t26 6.5t27 -10t10 -30v-639q0 -19 -9.5 -29.5t-28.5 -10.5q-18 0 -28 10.5t-10 29.5v562h24l-250 -469q-7 -13 -14.5 -18.5t-21.5 -5.5t-22 6t-14 18
l-253 470h24v-563q0 -19 -9.5 -29.5t-27.5 -10.5z" />
    <glyph glyph-name="N" unicode="N" horiz-adv-x="740" 
d="M126 -7q-19 0 -29 10.5t-10 30.5v636q0 20 10 31t26 11t23.5 -5.5t17.5 -19.5l436 -581h-24v566q0 19 10 29.5t29 10.5q18 0 27.5 -10.5t9.5 -29.5v-639q0 -19 -8.5 -29.5t-24.5 -10.5q-15 0 -24 6t-19 19l-435 581h23v-565q0 -20 -10 -30.5t-28 -10.5z" />
    <glyph glyph-name="O" unicode="O" horiz-adv-x="767" 
d="M383 -9q-98 0 -170.5 44.5t-112 125.5t-39.5 192q0 84 22.5 150.5t64.5 113t101.5 72t133.5 25.5q100 0 172.5 -44t112 -124.5t39.5 -191.5q0 -84 -23 -151t-65 -114t-101.5 -72.5t-134.5 -25.5zM383 64q76 0 128.5 34t80.5 99t28 156q0 137 -61.5 212.5t-175.5 75.5
q-74 0 -126.5 -34t-80.5 -98.5t-28 -155.5q0 -136 62 -212.5t173 -76.5z" />
    <glyph glyph-name="P" unicode="P" horiz-adv-x="633" 
d="M128 -7q-20 0 -30.5 11.5t-10.5 31.5v627q0 21 11 31.5t31 10.5h237q113 0 174 -55.5t61 -156.5q0 -100 -61 -156t-174 -56h-197v-245q0 -20 -10 -31.5t-31 -11.5zM169 350h187q81 0 122.5 36.5t41.5 106.5q0 71 -41.5 107.5t-122.5 36.5h-187v-287z" />
    <glyph glyph-name="Q" unicode="Q" horiz-adv-x="767" 
d="M627 -133q10 -15 8.5 -27.5t-10 -21t-20.5 -11t-24.5 3t-21.5 20.5l-65 103q-16 28 -44 42.5t-67 14.5l68 29q47 0 74.5 -16.5t54.5 -60.5zM383 -9q-98 0 -170.5 44.5t-112 125.5t-39.5 192q0 84 22.5 150.5t64.5 113t101.5 72t133.5 25.5q100 0 172.5 -44t112 -124.5
t39.5 -191.5q0 -84 -23 -151t-65 -114t-101.5 -72.5t-134.5 -25.5zM383 64q76 0 128.5 34t80.5 99t28 156q0 137 -61.5 212.5t-175.5 75.5q-74 0 -126.5 -34t-80.5 -98.5t-28 -155.5q0 -136 62 -212.5t173 -76.5z" />
    <glyph glyph-name="R" unicode="R" horiz-adv-x="669" 
d="M128 -7q-20 0 -30.5 11.5t-10.5 31.5v627q0 21 11 31.5t31 10.5h237q113 0 174 -53t61 -151q0 -62 -27.5 -107.5t-80.5 -69t-127 -23.5l10 13h20q39 0 68 -20t53 -64l96 -179q8 -14 7.5 -27.5t-9.5 -22t-26 -8.5t-28 8t-19 23l-109 202q-23 43 -53 57.5t-79 14.5h-128
v-262q0 -20 -10 -31.5t-31 -11.5zM169 363h185q82 0 124 34.5t42 103.5q0 67 -42 101.5t-124 34.5h-185v-274z" />
    <glyph glyph-name="S" unicode="S" horiz-adv-x="615" 
d="M315 -9q-47 0 -92 8t-83.5 23t-69.5 38q-12 9 -16.5 20.5t-2 23t10 19.5t18.5 9t24 -7q45 -32 96 -46.5t115 -14.5q90 0 133.5 33.5t43.5 88.5q0 45 -31.5 70.5t-105.5 40.5l-104 21q-94 20 -140.5 65.5t-46.5 121.5q0 47 19 85.5t53 66t81 42.5t104 15q63 0 117.5 -17.5
t98.5 -52.5q11 -9 15 -20.5t1 -22t-10.5 -17.5t-19 -8t-25.5 8q-40 30 -83 43.5t-95 13.5q-53 0 -91.5 -16t-60 -46.5t-21.5 -70.5q0 -48 29.5 -76t96.5 -41l104 -22q101 -21 149.5 -63.5t48.5 -115.5q0 -44 -18 -81t-52 -63.5t-82 -40.5t-108 -14z" />
    <glyph glyph-name="T" unicode="T" horiz-adv-x="602" 
d="M301 -7q-19 0 -30 11.5t-11 31.5v598h-225q-18 0 -28 10t-10 26q0 17 10 26t28 9h533q18 0 28 -9t10 -26t-10 -26.5t-28 -9.5h-225v-598q0 -20 -10.5 -31.5t-31.5 -11.5z" />
    <glyph glyph-name="U" unicode="U" horiz-adv-x="728" 
d="M365 -9q-70 0 -122.5 18.5t-88.5 55t-54 90.5t-18 124v391q0 21 10.5 31.5t30.5 10.5t30.5 -10.5t10.5 -31.5v-387q0 -110 51 -164.5t150 -54.5t149 54.5t50 164.5v387q0 21 11 31.5t31 10.5q19 0 29.5 -10.5t10.5 -31.5v-391q0 -93 -31.5 -158t-94.5 -97.5t-155 -32.5z
" />
    <glyph glyph-name="V" unicode="V" horiz-adv-x="689" 
d="M345 -7q-19 0 -31 9t-19 27l-275 629q-7 17 -4 28.5t13.5 18.5t24.5 7q19 0 28.5 -8.5t15.5 -24.5l264 -613h-32l263 614q7 15 17 23.5t28 8.5q14 0 23.5 -7t12 -19t-4.5 -28l-275 -629q-7 -18 -18.5 -27t-30.5 -9z" />
    <glyph glyph-name="W" unicode="W" horiz-adv-x="1101" 
d="M313 -7q-18 0 -29 9.5t-18 28.5l-221 631q-7 21 3.5 35.5t33.5 14.5q17 0 27 -8.5t17 -26.5l207 -607h-35l211 604q7 19 17 28.5t27 9.5q16 0 25.5 -9.5t16.5 -28.5l208 -604h-31l209 607q5 17 15.5 26t27.5 9q21 0 31 -14t2 -36l-222 -631q-7 -19 -17.5 -28.5
t-29.5 -9.5q-18 0 -28.5 9.5t-18.5 28.5l-201 579h22l-203 -579q-7 -19 -17 -28.5t-29 -9.5z" />
    <glyph glyph-name="X" unicode="X" horiz-adv-x="650" 
d="M78 -7q-17 0 -27.5 9t-12 22t9.5 26l242 326v-31l-228 308q-11 15 -10 28t11.5 22t25.5 9q14 0 24 -6t21 -21l205 -281h-26l204 281q10 15 20 21t24 6q16 0 26.5 -8.5t11.5 -22t-10 -28.5l-228 -308v31l242 -326q10 -13 8.5 -26t-11.5 -22t-27 -9q-13 0 -23.5 6.5
t-21.5 20.5l-219 299h32l-219 -299q-10 -14 -21 -20.5t-23 -6.5z" />
    <glyph glyph-name="Y" unicode="Y" horiz-adv-x="596" 
d="M298 -7q-20 0 -30.5 11.5t-10.5 32.5v328l18 -57l-251 346q-9 13 -8.5 26.5t10.5 22.5t26 9q14 0 25 -6.5t20 -20.5l213 -294h-21l213 294q11 15 21 21t24 6q16 0 25 -8.5t9.5 -22t-9.5 -28.5l-250 -345l17 57v-328q0 -44 -41 -44z" />
    <glyph glyph-name="Z" unicode="Z" horiz-adv-x="589" 
d="M86 0q-16 0 -26 6.5t-14 18t-0.5 26t15.5 29.5l416 586v-32h-397q-19 0 -29 9.5t-10 26.5t10 26t29 9h434q16 0 26.5 -6.5t14 -17.5t0 -26t-14.5 -30l-416 -585v31h411q19 0 29 -9t10 -26q0 -18 -10 -27t-29 -9h-449z" />
    <glyph glyph-name="bracketleft" unicode="[" horiz-adv-x="315" 
d="M145 -180q-15 0 -25.5 10t-10.5 25v815q0 15 10.5 25t25.5 10h136q15 0 24 -9t9 -23q0 -13 -9 -22.5t-24 -9.5h-91v-757h91q15 0 24 -9.5t9 -22.5t-9 -22.5t-24 -9.5h-136z" />
    <glyph glyph-name="backslash" unicode="\" horiz-adv-x="283" 
d="M228 -34l-238 738q-4 13 0 23t12.5 15.5t19 5.5t19.5 -6t14 -19l237 -738q4 -13 0.5 -23t-12 -15.5t-19.5 -5.5t-19.5 6t-13.5 19z" />
    <glyph glyph-name="bracketright" unicode="]" horiz-adv-x="315" 
d="M34 -180q-15 0 -24 9.5t-9 22.5t9 22.5t24 9.5h91v757h-91q-15 0 -24 9.5t-9 22.5q0 14 9 23t24 9h137q15 0 25 -10t10 -25v-815q0 -15 -10 -25t-25 -10h-137z" />
    <glyph glyph-name="asciicircum" unicode="^" horiz-adv-x="600" 
d="M91 133q-21 0 -27.5 13t1.5 32l195 430q6 15 16 21t24 6q28 0 40 -27l195 -430q9 -19 2.5 -32t-28.5 -13q-11 0 -19 6t-14 20l-196 436h40l-196 -436q-7 -14 -14 -20t-19 -6z" />
    <glyph glyph-name="underscore" unicode="_" horiz-adv-x="500" 
d="M42 -53q-12 0 -20.5 7.5t-8.5 18.5t8.5 19t20.5 8h416q12 0 20.5 -8t8.5 -19t-8.5 -18.5t-20.5 -7.5h-416z" />
    <glyph glyph-name="grave" unicode="`" horiz-adv-x="356" 
d="M207 556l-101 156q-8 12 -6 23t10 19t19 10.5t22 -1.5t18 -18l84 -163q6 -12 2.5 -21t-13 -13.5t-19 -3t-16.5 11.5z" />
    <glyph glyph-name="a" unicode="a" horiz-adv-x="530" 
d="M229 -9q-50 0 -89.5 19.5t-62.5 53.5t-23 76q0 54 27.5 85t91 44t173.5 13h45v-53h-44q-81 0 -127.5 -7.5t-65 -25.5t-18.5 -51q0 -41 28.5 -67t77.5 -26q40 0 70.5 19t48 52t17.5 76v114q0 62 -25 89.5t-82 27.5q-35 0 -70 -9t-74 -29q-14 -7 -24 -4.5t-16 10.5t-7 18.5
t4.5 20.5t17.5 16q44 22 87 32t82 10q63 0 104 -20.5t61 -62t20 -106.5v-271q0 -20 -9.5 -31t-27.5 -11q-19 0 -29 11t-10 31v78h9q-8 -38 -30.5 -65t-55.5 -42t-74 -15z" />
    <glyph glyph-name="b" unicode="b" horiz-adv-x="583" 
d="M322 -9q-66 0 -113.5 34t-63.5 91l11 11v-92q0 -20 -10.5 -31t-29.5 -11q-20 0 -30 11t-10 31v636q0 20 10 30.5t30 10.5q19 0 30 -10.5t11 -30.5v-298h-12q17 56 64 89t113 33t114 -30.5t74.5 -87t26.5 -134.5q0 -77 -26.5 -133.5t-75 -87.5t-113.5 -31zM305 56
q46 0 79.5 22t52 64t18.5 101q0 91 -40.5 139t-109.5 48q-45 0 -79 -21.5t-52.5 -63t-18.5 -102.5q0 -90 41 -138.5t109 -48.5z" />
    <glyph glyph-name="c" unicode="c" horiz-adv-x="463" 
d="M282 -9q-73 0 -126 32t-81.5 89.5t-28.5 133.5q0 58 16 104t47 78.5t74.5 49.5t98.5 17q36 0 75 -11t71 -38q10 -7 13 -17t0 -19.5t-10 -16t-17.5 -7.5t-21.5 7q-26 20 -53 28t-52 8q-39 0 -68 -12.5t-49 -35.5t-30.5 -57t-10.5 -79q0 -87 41 -137.5t117 -50.5
q25 0 51.5 8t53.5 28q11 8 21 7t17 -7.5t9.5 -16.5t-0.5 -19.5t-13 -16.5q-32 -26 -70 -37.5t-74 -11.5z" />
    <glyph glyph-name="d" unicode="d" horiz-adv-x="583" 
d="M261 -9q-65 0 -113.5 31t-75 87.5t-26.5 133.5q0 78 26.5 134.5t75 87t113.5 30.5q66 0 113 -33t63 -89h-11v298q0 20 10.5 30.5t30.5 10.5q19 0 29.5 -10.5t10.5 -30.5v-636q0 -20 -10 -31t-30 -11q-19 0 -29.5 11t-10.5 31v95l11 -14q-16 -57 -63.5 -91t-113.5 -34z
M278 56q45 0 79 22t52.5 64t18.5 101q0 91 -40.5 139t-109.5 48q-46 0 -79.5 -21.5t-52 -63t-18.5 -102.5q0 -90 41 -138.5t109 -48.5z" />
    <glyph glyph-name="e" unicode="e" horiz-adv-x="532" 
d="M295 -9q-77 0 -132.5 30.5t-86 86.5t-30.5 134q0 76 30 132.5t82.5 88.5t121.5 32q49 0 88 -16.5t66.5 -47.5t42 -75t14.5 -99q0 -16 -9 -23.5t-26 -7.5h-348v53h329l-16 -13q0 54 -16 91.5t-46.5 57.5t-76.5 20q-51 0 -86.5 -23.5t-53.5 -65t-18 -96.5v-6
q0 -92 44.5 -140t126.5 -48q34 0 67.5 9t65.5 30q14 9 25.5 8.5t18.5 -7t9.5 -16t-2 -20.5t-17.5 -19q-33 -24 -78 -37t-89 -13z" />
    <glyph glyph-name="f" unicode="f" horiz-adv-x="333" 
d="M142 -7q-19 0 -29.5 11t-10.5 31v388h-64q-16 0 -25.5 8.5t-9.5 23.5t9.5 23t25.5 8h86l-22 -21v38q0 95 46.5 145t136.5 58l29 3q14 1 22.5 -5t11 -15t0.5 -18.5t-9 -16.5t-17 -8l-23 -2q-61 -5 -88.5 -37t-27.5 -94v-42l-12 15h120q17 0 26 -8t9 -23t-9 -23.5t-26 -8.5
h-108v-388q0 -42 -41 -42z" />
    <glyph glyph-name="g" unicode="g" horiz-adv-x="586" 
d="M291 -189q-53 0 -103.5 12.5t-91.5 39.5q-12 7 -15.5 17t-1.5 19.5t9 17t16.5 9.5t19.5 -3q44 -27 84 -37t79 -10q71 0 107.5 38t36.5 110v113h10q-15 -58 -63.5 -92t-113.5 -34q-67 0 -116 30.5t-75.5 85.5t-26.5 127q0 54 15 98.5t43.5 76t69 49t90.5 17.5
q66 0 114 -33.5t62 -90.5l-10 -12v93q0 20 10.5 30.5t29.5 10.5q20 0 30 -10.5t10 -30.5v-417q0 -111 -55.5 -167.5t-163.5 -56.5zM279 77q47 0 81 21.5t52.5 61.5t18.5 94q0 81 -41 128.5t-111 47.5q-46 0 -80 -21.5t-52.5 -61t-18.5 -93.5q0 -81 41 -129t110 -48z" />
    <glyph glyph-name="h" unicode="h" horiz-adv-x="568" 
d="M116 -7q-20 0 -30 11t-10 31v636q0 20 10 30.5t30 10.5q19 0 30 -10.5t11 -30.5v-293h-13q21 58 68.5 87.5t109.5 29.5q58 0 96.5 -21t57.5 -63.5t19 -107.5v-268q0 -20 -10.5 -31t-29.5 -11q-20 0 -30.5 11t-10.5 31v263q0 68 -26.5 99.5t-84.5 31.5q-67 0 -106.5 -41.5
t-39.5 -110.5v-242q0 -42 -41 -42z" />
    <glyph glyph-name="i" unicode="i" horiz-adv-x="232" 
d="M116 -5q-20 0 -30 11.5t-10 32.5v409q0 21 10 32t30 11q19 0 30 -11t11 -32v-409q0 -21 -10.5 -32.5t-30.5 -11.5zM116 603q-25 0 -39 13.5t-14 36.5q0 24 14 36.5t39 12.5q26 0 39.5 -12.5t13.5 -36.5q0 -23 -13.5 -36.5t-39.5 -13.5z" />
    <glyph glyph-name="j" unicode="j" horiz-adv-x="236" 
d="M-17 -191q-15 -1 -24.5 5t-13 15.5t-2 19t8.5 16.5t19 7q55 3 81.5 29.5t26.5 83.5v467q0 20 10.5 30.5t30.5 10.5q19 0 29.5 -10.5t10.5 -30.5v-461q0 -61 -20.5 -100.5t-59.5 -59t-97 -22.5zM119 603q-25 0 -39 13.5t-14 36.5q0 24 14 36.5t39 12.5q26 0 40 -12.5
t14 -36.5q0 -23 -14 -36.5t-40 -13.5z" />
    <glyph glyph-name="k" unicode="k" horiz-adv-x="500" 
d="M116 -7q-20 0 -30 11t-10 31v636q0 20 10 30.5t30 10.5q19 0 30 -10.5t11 -30.5v-401h2l205 196q14 13 24.5 20t28.5 7q16 0 25 -8.5t8.5 -21t-12.5 -26.5l-218 -207v44l237 -223q14 -14 14 -27t-9.5 -22t-24.5 -9q-18 0 -29 7.5t-27 22.5l-222 205h-2v-193
q0 -42 -41 -42z" />
    <glyph glyph-name="l" unicode="l" horiz-adv-x="296" 
d="M224 -9q-72 0 -110 44t-38 126v510q0 20 10 30.5t30 10.5q19 0 30 -10.5t11 -30.5v-504q0 -54 21.5 -80.5t63.5 -26.5q9 0 16 1t14 1q11 1 15.5 -5t4.5 -24t-8 -27t-26 -12q-8 -1 -17 -2t-17 -1z" />
    <glyph glyph-name="m" unicode="m" horiz-adv-x="856" 
d="M118 -7q-20 0 -30 11t-10 31v417q0 20 10 30.5t29 10.5t29.5 -10.5t10.5 -30.5v-88l-11 14q19 56 61.5 86.5t101.5 30.5q62 0 100.5 -29.5t51.5 -91.5h-15q18 56 64.5 88.5t108.5 32.5q55 0 90.5 -21t53.5 -63.5t18 -107.5v-268q0 -20 -10.5 -31t-30.5 -11
q-19 0 -29.5 11t-10.5 31v264q0 67 -23 98.5t-78 31.5q-60 0 -94.5 -41.5t-34.5 -112.5v-240q0 -20 -10.5 -31t-30.5 -11q-19 0 -29.5 11t-10.5 31v264q0 67 -23.5 98.5t-77.5 31.5q-60 0 -94.5 -41.5t-34.5 -112.5v-240q0 -42 -41 -42z" />
    <glyph glyph-name="n" unicode="n" horiz-adv-x="568" 
d="M116 -7q-20 0 -30 11t-10 31v417q0 20 10 30.5t29 10.5t29.5 -10.5t10.5 -30.5v-86l-11 12q21 58 68.5 87.5t109.5 29.5q58 0 96.5 -21t57.5 -63.5t19 -107.5v-268q0 -20 -10.5 -31t-29.5 -11q-20 0 -30.5 11t-10.5 31v263q0 68 -26.5 99.5t-84.5 31.5
q-67 0 -106.5 -41.5t-39.5 -110.5v-242q0 -42 -41 -42z" />
    <glyph glyph-name="o" unicode="o" horiz-adv-x="556" 
d="M278 -9q-71 0 -123 31t-80.5 87.5t-28.5 133.5q0 58 16 104.5t47 79.5t73.5 50.5t95.5 17.5q71 0 123 -31t80.5 -87.5t28.5 -133.5q0 -58 -16 -104t-47 -79.5t-73.5 -51t-95.5 -17.5zM278 56q45 0 79 22t52.5 64t18.5 101q0 91 -40.5 139t-109.5 48q-46 0 -79.5 -21.5
t-52 -63t-18.5 -102.5q0 -90 41 -138.5t109 -48.5z" />
    <glyph glyph-name="p" unicode="p" horiz-adv-x="583" 
d="M116 -187q-20 0 -30 10.5t-10 30.5v598q0 20 10 30.5t29 10.5q20 0 30.5 -10.5t10.5 -30.5v-95l-11 14q16 57 63.5 90.5t113.5 33.5q65 0 113.5 -30.5t75 -87t26.5 -134.5q0 -77 -26.5 -133.5t-74.5 -87.5t-114 -31t-113 33.5t-64 89.5h12v-260q0 -20 -11 -30.5
t-30 -10.5zM305 56q46 0 79.5 22t52 64t18.5 101q0 91 -40.5 139t-109.5 48q-45 0 -79 -21.5t-52.5 -63t-18.5 -102.5q0 -90 41 -138.5t109 -48.5z" />
    <glyph glyph-name="q" unicode="q" horiz-adv-x="583" 
d="M467 -187q-20 0 -30.5 10.5t-10.5 30.5v260h11q-16 -56 -63 -89.5t-113 -33.5q-65 0 -113.5 31t-75 87.5t-26.5 133.5q0 78 26.5 134.5t75 87t113.5 30.5q66 0 113.5 -33.5t63.5 -90.5l-11 -14v95q0 20 10.5 30.5t29.5 10.5q20 0 30 -10.5t10 -30.5v-598
q0 -20 -10.5 -30.5t-29.5 -10.5zM278 56q45 0 79 22t52.5 64t18.5 101q0 91 -40.5 139t-109.5 48q-46 0 -79.5 -21.5t-52 -63t-18.5 -102.5q0 -90 41 -138.5t109 -48.5z" />
    <glyph glyph-name="r" unicode="r" horiz-adv-x="358" 
d="M117 -7q-20 0 -30.5 11t-10.5 31v417q0 20 10 30.5t29 10.5t29.5 -10.5t10.5 -30.5v-81h-10q16 59 61 91t111 34q15 1 24 -6.5t10 -25.5q1 -17 -8 -27t-28 -12l-16 -2q-68 -6 -104.5 -43.5t-36.5 -102.5v-242q0 -20 -10.5 -31t-30.5 -11z" />
    <glyph glyph-name="s" unicode="s" horiz-adv-x="481" 
d="M240 -9q-45 0 -90.5 11t-84.5 38q-10 7 -14 16.5t-2.5 19t8 16.5t16 8.5t21.5 -4.5q39 -24 75.5 -33.5t72.5 -9.5q57 0 86 21t29 57q0 28 -19 44.5t-60 25.5l-91 20q-63 13 -93.5 45t-30.5 83q0 45 23.5 77.5t66.5 50.5t100 18q44 0 83.5 -11.5t71.5 -36.5
q10 -7 13.5 -16.5t1 -19t-9.5 -16t-17 -7.5t-21 6q-30 20 -61 29.5t-61 9.5q-56 0 -85 -22t-29 -58q0 -28 18 -46t56 -26l91 -19q65 -14 97.5 -44.5t32.5 -82.5q0 -66 -53 -105t-141 -39z" />
    <glyph glyph-name="t" unicode="t" horiz-adv-x="350" 
d="M271 -9q-57 0 -95.5 20.5t-57.5 60t-19 96.5v255h-67q-17 0 -26 8.5t-9 23.5t9 23t26 8h67v115q0 20 11 30.5t30 10.5t29.5 -10.5t10.5 -30.5v-115h126q17 0 26 -8t9 -23t-9 -23.5t-26 -8.5h-126v-247q0 -57 24 -86.5t78 -29.5q19 0 32.5 4t22.5 4q9 1 15 -6t6 -24
q0 -12 -4.5 -22t-15.5 -14q-12 -4 -31.5 -7.5t-35.5 -3.5z" />
    <glyph glyph-name="u" unicode="u" horiz-adv-x="561" 
d="M248 -9q-59 0 -97.5 21.5t-58 64.5t-19.5 107v268q0 21 10.5 31t29.5 10q20 0 30.5 -10t10.5 -31v-267q0 -64 26.5 -95.5t83.5 -31.5q62 0 101 42t39 110v242q0 21 10.5 31t30.5 10q19 0 29.5 -10t10.5 -31v-417q0 -42 -39 -42q-19 0 -29.5 11t-10.5 31v91l13 -14
q-20 -59 -65.5 -90t-105.5 -31z" />
    <glyph glyph-name="v" unicode="v" horiz-adv-x="515" 
d="M257 -7q-17 0 -30 9.5t-22 29.5l-173 404q-7 15 -5 28t12 21t28 8q16 0 25 -7t16 -25l164 -401h-27l167 401q7 18 16 25t26 7q16 0 24.5 -8t10 -20.5t-4.5 -27.5l-175 -405q-7 -20 -20.5 -29.5t-31.5 -9.5z" />
    <glyph glyph-name="w" unicode="w" horiz-adv-x="841" 
d="M244 -7q-17 0 -30 9t-21 29l-149 405q-6 17 -3.5 30t12.5 20t25 7t24.5 -7t15.5 -26l140 -400h-24l144 400q7 18 17.5 25.5t27.5 7.5q16 0 27 -8t17 -25l141 -400h-23l142 402q7 18 17 24.5t24 6.5q16 0 24.5 -8t9.5 -21t-5 -28l-149 -405q-7 -19 -20.5 -28.5t-30.5 -9.5
t-30 9.5t-20 28.5l-148 406h43l-147 -406q-7 -19 -20 -28.5t-31 -9.5z" />
    <glyph glyph-name="x" unicode="x" horiz-adv-x="525" 
d="M78 -6q-13 0 -23 8t-10.5 21.5t12.5 28.5l175 220v-42l-164 205q-13 16 -12.5 29t10.5 21t23 8q15 0 25.5 -5.5t19.5 -17.5l143 -181h-28l144 181q9 12 19 17.5t25 5.5q14 0 23.5 -8t10 -21.5t-12.5 -29.5l-163 -202v37l175 -217q12 -15 11.5 -28.5t-10.5 -21.5t-24 -8
t-24.5 5.5t-20.5 17.5l-154 194h29l-154 -194q-9 -11 -19.5 -17t-25.5 -6z" />
    <glyph glyph-name="y" unicode="y" horiz-adv-x="514" 
d="M184 -187q-15 0 -24 8t-10.5 21.5t4.5 27.5l69 155v-35l-192 446q-6 15 -4 28t12 21t28 8q16 0 25 -7t16 -25l164 -402h-27l166 402q8 18 17 25t26 7q16 0 24.5 -8t10 -20.5t-4.5 -27.5l-256 -592q-8 -18 -17.5 -25t-26.5 -7z" />
    <glyph glyph-name="z" unicode="z" horiz-adv-x="463" 
d="M85 0q-13 0 -21 6t-11 16t0 22t13 23l282 377v-21h-267q-16 0 -24.5 8.5t-8.5 23.5t8.5 23t24.5 8h307q15 0 24.5 -6t12.5 -15.5t0.5 -21t-11.5 -22.5l-287 -381v23h281q33 0 33 -31q0 -15 -8.5 -23.5t-24.5 -8.5h-323z" />
    <glyph glyph-name="braceleft" unicode="{" horiz-adv-x="352" 
d="M247 -180q-33 0 -55.5 11.5t-34 34.5t-11.5 56v227q0 42 -16.5 61t-58.5 20q-13 0 -21 10t-8 23q0 14 8 23t21 10q42 1 58.5 20t16.5 60v227q0 50 26 76t75 26h69q15 0 25 -9t10 -23q0 -13 -8.5 -22.5t-22.5 -9.5h-50q-21 0 -32 -11t-11 -34v-228q0 -30 -12 -54.5
t-32 -38.5t-47 -14v4q27 0 47 -14t32 -38.5t12 -54.5v-229q0 -23 11 -34t32 -11h50q14 0 22.5 -9.5t8.5 -22.5t-10 -22.5t-25 -9.5h-69z" />
    <glyph glyph-name="bar" unicode="|" horiz-adv-x="265" 
d="M132 -187q-19 0 -29.5 10.5t-10.5 30.5v817q0 21 10.5 31t29.5 10q20 0 30.5 -10t10.5 -31v-817q0 -41 -41 -41z" />
    <glyph glyph-name="braceright" unicode="}" horiz-adv-x="352" 
d="M36 -180q-15 0 -25 9.5t-10 22.5t8.5 22.5t22.5 9.5h50q22 0 32.5 11t10.5 34v229q0 30 12 54.5t32.5 38.5t46.5 14v-4q-26 0 -46.5 14t-32.5 38.5t-12 54.5v228q0 23 -10.5 34t-32.5 11h-50q-14 0 -22.5 9.5t-8.5 22.5q0 14 10 23t25 9h70q32 0 54.5 -11.5t34 -34.5
t11.5 -56v-227q0 -41 16.5 -60t58.5 -20q14 -1 21.5 -10.5t7.5 -22.5t-7.5 -23t-21.5 -10q-42 -1 -58.5 -20t-16.5 -61v-227q0 -50 -25.5 -76t-74.5 -26h-70z" />
    <glyph glyph-name="asciitilde" unicode="~" horiz-adv-x="600" 
d="M415 217q-26 0 -55.5 10t-70.5 32q-40 23 -61.5 30.5t-37.5 7.5q-22 0 -40.5 -9.5t-34.5 -35.5q-7 -13 -18.5 -15t-20.5 4t-12.5 17t3.5 23q20 39 51 58t68 19q25 0 53.5 -9.5t68.5 -31.5q37 -19 60 -29.5t42 -10.5q22 0 40.5 10.5t34.5 35.5q8 12 19 14.5t20.5 -3.5
t13 -17t-3.5 -24q-21 -38 -51.5 -57t-67.5 -19z" />
    <glyph glyph-name="uni00A0" unicode="&#xa0;" horiz-adv-x="258" 
 />
    <glyph glyph-name="exclamdown" unicode="&#xa1;" horiz-adv-x="228" 
d="M115 -187q-24 0 -36.5 14.5t-11.5 38.5l20 412q1 16 8.5 23.5t19.5 7.5t19 -7.5t8 -23.5l19 -412q1 -24 -11 -38.5t-35 -14.5zM115 380q-25 0 -40 16t-15 39q0 25 15 40t40 15t39.5 -15t14.5 -40q0 -23 -14.5 -39t-39.5 -16z" />
    <glyph glyph-name="cent" unicode="&#xa2;" horiz-adv-x="600" 
d="M318 -122q-14 0 -24 10t-10 25v103l14 -22q-61 7 -108 40t-73 87t-26 123q0 50 14.5 92.5t42 75t65.5 53t85 25.5l-14 -26v114q0 15 10 25t24 10q15 0 24.5 -10t9.5 -25v-111l-19 25q40 0 80.5 -12t70.5 -35q10 -7 13.5 -17t0.5 -20t-10 -16.5t-17.5 -7t-23.5 7.5
q-24 17 -53 25.5t-59 8.5q-37 0 -67 -13t-51 -37t-32 -57.5t-11 -74.5q0 -83 43 -133t117 -50q30 0 58.5 8t55.5 26q14 8 24.5 7.5t17 -7.5t8.5 -17t-2 -20t-14 -17q-29 -22 -70 -35t-81 -13l21 20v-100q0 -15 -9.5 -25t-24.5 -10z" />
    <glyph glyph-name="sterling" unicode="&#xa3;" horiz-adv-x="600" 
d="M76 0q-14 0 -24.5 10.5t-10.5 25.5t10.5 24.5t24.5 9.5h85l-15 -15v285l15 -17h-88q-13 0 -22.5 9t-9.5 21q0 14 9.5 22.5t22.5 8.5h88l-15 -16v142q0 64 24 109.5t72 70t120 24.5q51 0 102 -17t85 -47q12 -9 15 -20.5t-1 -21.5t-12.5 -16.5t-19.5 -6.5t-23 8
q-32 28 -68.5 39.5t-78.5 11.5q-66 0 -99.5 -33t-33.5 -97v-144l-8 14h162q14 0 23.5 -8.5t9.5 -22.5q0 -12 -9.5 -21t-23.5 -9h-154v-253h296q15 0 25 -9.5t10 -24.5t-10 -25.5t-25 -10.5h-448z" />
    <glyph glyph-name="currency" unicode="&#xa4;" horiz-adv-x="600" 
d="M50 -11q-9 9 -9 22t9 22l59 60q-23 32 -36.5 71t-13.5 81q0 43 13 82t37 70l-59 61q-9 9 -9 21t9 22q9 9 21.5 9t22.5 -11l58 -59q30 25 68 39t80 14t79 -13.5t68 -37.5l55 57q10 11 23.5 11.5t22.5 -9.5q10 -9 10 -22t-11 -23l-57 -58q24 -32 37.5 -71t13.5 -82
t-13.5 -82t-38.5 -71l58 -59q10 -10 10 -22.5t-10 -21.5q-8 -8 -21 -8t-22 10l-57 58q-30 -24 -67.5 -38t-79.5 -14t-80 14t-69 38l-58 -59q-9 -9 -21.5 -9.5t-21.5 8.5zM300 67q46 0 84 24t60 64.5t22 89.5t-22 89.5t-60 65t-84 23.5q-46 0 -84.5 -24t-61 -64.5
t-22.5 -89.5t22.5 -89.5t60.5 -64.5t85 -24z" />
    <glyph glyph-name="yen" unicode="&#xa5;" horiz-adv-x="600" 
d="M300 -7q-20 0 -30.5 11.5t-10.5 32.5v138h-160q-16 0 -25 8t-9 22t9 22t25 8h160v93h-160q-16 0 -25 8t-9 22t9 22t25 8h134v-14l-203 282q-9 13 -7.5 26t11 21.5t24.5 8.5q14 0 23.5 -6t18.5 -20l211 -296h-21l210 296q9 14 19 20t24 6q16 0 25.5 -8.5t10.5 -21.5
t-10 -27l-201 -281v14h133q16 0 25 -8t9 -22t-9 -22t-25 -8h-160v-93h160q16 0 25 -8t9 -22t-9 -22t-25 -8h-160v-138q0 -44 -41 -44z" />
    <glyph glyph-name="brokenbar" unicode="&#xa6;" horiz-adv-x="265" 
d="M132 365q-19 0 -29.5 10.5t-10.5 30.5v265q0 21 10.5 31t29.5 10q20 0 30.5 -10t10.5 -31v-265q0 -41 -41 -41zM132 -187q-19 0 -29.5 10.5t-10.5 30.5v265q0 20 10.5 30.5t29.5 10.5q20 0 30.5 -10.5t10.5 -30.5v-265q0 -41 -41 -41z" />
    <glyph glyph-name="section" unicode="&#xa7;" horiz-adv-x="545" 
d="M248 -189q-54 0 -100.5 12.5t-79.5 36.5q-10 6 -13 15.5t-1 19.5t9 17t16.5 8t21.5 -5q30 -20 69.5 -30.5t78.5 -10.5q40 0 70 12.5t47 38t17 60.5q0 38 -19.5 65.5t-70.5 51.5l-110 51q-53 26 -84 51.5t-44 55.5t-13 67q0 41 21 79.5t54 62.5l-7 -24q-11 14 -19.5 35.5
t-8.5 53.5q0 57 27.5 96.5t75.5 61t108 21.5q51 0 96 -12.5t79 -36.5q10 -6 13.5 -16.5t1 -20t-9.5 -16.5t-16.5 -8t-21.5 6q-29 20 -67.5 31t-76.5 11q-37 0 -66.5 -13t-46 -38t-16.5 -61q0 -37 19.5 -64.5t70.5 -51.5l110 -52q54 -25 84.5 -51t43.5 -55.5t13 -66.5
q0 -42 -20.5 -80t-54.5 -62l7 23q11 -13 19.5 -35t8.5 -54q0 -55 -28 -95.5t-76.5 -62t-110.5 -21.5zM116 338q0 -36 23 -64.5t83 -57.5l94 -44q37 -17 61 -36t38 -37l-25 -1q20 17 29.5 40t9.5 49q0 36 -22 64.5t-84 56.5l-94 45q-36 17 -60.5 35.5t-37.5 36.5l24 2
q-19 -17 -29 -40t-10 -49z" />
    <glyph glyph-name="dieresis" unicode="&#xa8;" horiz-adv-x="467" 
d="M322 606q-23 0 -35.5 12t-12.5 34t12.5 34.5t35.5 12.5q22 0 34 -12.5t12 -34.5t-12 -34t-34 -12zM147 606q-22 0 -34.5 12t-12.5 34t12.5 34.5t34.5 12.5q23 0 35 -12.5t12 -34.5t-12 -34t-35 -12z" />
    <glyph glyph-name="copyright" unicode="&#xa9;" horiz-adv-x="815" 
d="M408 -9q-76 0 -142 27.5t-115.5 77t-77 115.5t-27.5 142q0 77 27.5 142.5t77 114.5t115 76.5t142.5 27.5t142.5 -27.5t114.5 -76.5t76.5 -114.5t27.5 -142.5q0 -76 -27.5 -142t-76.5 -115.5t-114.5 -77t-142.5 -27.5zM408 35q67 0 124.5 24t100 67.5t66.5 101t24 125.5
t-24 125.5t-66.5 100.5t-100 67t-124.5 24q-68 0 -125.5 -24t-100 -67t-66.5 -100.5t-24 -125.5t24 -125.5t66.5 -101t100 -67.5t125.5 -24zM421 137q-97 0 -152.5 60t-55.5 159q0 98 55.5 155t152.5 57q34 0 68 -11t61 -31q9 -6 12 -15t1 -17.5t-8 -14.5t-15 -7t-20 6
q-24 16 -48 23t-47 7q-66 0 -103 -40t-37 -113t37 -115.5t103 -42.5q23 0 47 7t49 24q13 8 23.5 4.5t15.5 -13t3 -21t-13 -18.5q-27 -21 -61.5 -32t-67.5 -11z" />
    <glyph glyph-name="ordfeminine" unicode="&#xaa;" horiz-adv-x="327" 
d="M136 411q-47 0 -78 26t-31 64q0 46 41.5 66t113.5 20h60v-36h-58q-51 0 -75.5 -12t-24.5 -37q0 -20 15.5 -34.5t49.5 -14.5q25 0 44 11t30 32t11 50v57q0 33 -18 49.5t-54 16.5q-20 0 -41 -4.5t-43 -13.5q-13 -5 -21 -1t-11 12.5t1 17t15 13.5q25 12 51 16.5t51 4.5
q43 0 70.5 -12.5t41.5 -37.5t14 -63v-162q0 -28 -27 -28q-13 0 -20 8t-7 20v31h-2q-17 -31 -40 -45t-58 -14z" />
    <glyph glyph-name="guillemotleft" unicode="&#xab;" horiz-adv-x="441" 
d="M187 89q-11 -5 -22.5 -1.5t-17.5 14.5l-82 136q-8 14 -8 27.5t8 27.5l81 135q7 12 18 15.5t22 -1.5q14 -6 18 -19t-3 -28l-65 -130l65 -129q7 -15 3.5 -28.5t-17.5 -18.5zM368 89q-11 -5 -22.5 -1.5t-17.5 14.5l-82 136q-8 14 -8 27.5t8 27.5l81 135q7 12 18 15.5
t22 -1.5q14 -6 18 -19t-3 -28l-65 -130l65 -129q7 -15 3.5 -28.5t-17.5 -18.5z" />
    <glyph glyph-name="logicalnot" unicode="&#xac;" horiz-adv-x="600" 
d="M512 142q-16 0 -24 9t-8 24v183h-399q-15 0 -23.5 8t-8.5 23t8.5 23t23.5 8h430q16 0 24.5 -8.5t8.5 -24.5v-212q0 -33 -32 -33z" />
    <glyph glyph-name="uni00AD" unicode="&#xad;" horiz-adv-x="424" 
d="M100 233q-15 0 -25 9.5t-10 23.5q0 15 10 24.5t25 9.5h225q14 0 24 -9.5t10 -24.5q0 -14 -10 -23.5t-24 -9.5h-225z" />
    <glyph glyph-name="registered" unicode="&#xae;" horiz-adv-x="815" 
d="M408 -9q-76 0 -142 27.5t-115.5 77t-77 115.5t-27.5 142q0 77 27.5 142.5t77 114.5t115 76.5t142.5 27.5t142.5 -27.5t114.5 -76.5t76.5 -114.5t27.5 -142.5q0 -76 -27.5 -142t-76.5 -115.5t-114.5 -77t-142.5 -27.5zM408 35q67 0 124.5 24t100 67.5t66.5 101t24 125.5
t-24 125.5t-66.5 100.5t-100 67t-124.5 24q-68 0 -125.5 -24t-100 -67t-66.5 -100.5t-24 -125.5t24 -125.5t66.5 -101t100 -67.5t125.5 -24zM297 136q-33 0 -33 35v353q0 19 10 29.5t30 10.5h131q68 0 104.5 -32.5t36.5 -89.5q0 -58 -36.5 -88.5t-102.5 -30.5l12 10
q30 0 50 -12.5t33 -48.5l35 -92q8 -21 -2 -32.5t-28 -11.5q-12 0 -20 7.5t-11 18.5l-42 110q-9 25 -27.5 33.5t-44.5 8.5h-75l13 10v-153q0 -35 -33 -35zM330 368h97q42 0 63 17t21 54t-20.5 54t-63.5 17h-97v-142z" />
    <glyph glyph-name="macron" unicode="&#xaf;" horiz-adv-x="501" 
d="M129 625q-29 0 -29 27q0 14 7.5 21t21.5 7h242q30 0 30 -28q0 -12 -7.5 -19.5t-22.5 -7.5h-242z" />
    <glyph glyph-name="degree" unicode="&#xb0;" horiz-adv-x="371" 
d="M186 418q-43 0 -76.5 20t-53 53t-19.5 75t19.5 75.5t53 53t76.5 19.5q42 0 75 -19t52.5 -52.5t19.5 -76.5q0 -42 -19.5 -75.5t-52.5 -53t-75 -19.5zM186 473q40 0 64.5 26.5t24.5 66.5q0 41 -24.5 67t-64.5 26q-39 0 -64.5 -26t-25.5 -67q0 -40 25.5 -66.5t64.5 -26.5z
" />
    <glyph glyph-name="plusminus" unicode="&#xb1;" horiz-adv-x="600" 
d="M300 120q-16 0 -24 9t-8 25v143h-186q-16 0 -24.5 8.5t-8.5 23.5q0 14 8.5 22t24.5 8h186v144q0 16 8 24.5t24 8.5t24 -8.5t8 -24.5v-144h187q15 0 23.5 -8t8.5 -22q0 -16 -8.5 -24t-23.5 -8h-187v-143q0 -16 -8 -25t-24 -9zM81 0q-15 0 -23.5 8.5t-8.5 22.5q0 15 8.5 23
t23.5 8h438q15 0 23.5 -8t8.5 -23t-8.5 -23t-23.5 -8h-438z" />
    <glyph glyph-name="uni00B2" unicode="&#xb2;" horiz-adv-x="380" 
d="M85 282q-15 0 -24 8t-9 21q0 12 5 20.5t13 17.5l119 129q29 31 41.5 56t12.5 51q0 31 -18 48t-52 17q-22 0 -45 -7.5t-43 -22.5q-13 -8 -24 -5.5t-17 12t-3.5 21.5t14.5 21q26 19 61 29.5t69 10.5q40 0 69.5 -14.5t45.5 -40.5t16 -62q0 -34 -16 -66t-51 -69l-117 -125v9
h178q31 0 31 -29q0 -14 -8 -22t-23 -8h-225z" />
    <glyph glyph-name="uni00B3" unicode="&#xb3;" horiz-adv-x="380" 
d="M187 278q-39 0 -73.5 10.5t-59.5 29.5q-13 9 -15.5 20.5t3 21.5t17 12.5t25.5 -6.5q22 -15 46.5 -22t50.5 -7q35 0 58.5 16.5t23.5 51.5q0 33 -23.5 47t-62.5 14h-50q-16 0 -24 8t-8 22t8 21.5t24 7.5h39q39 0 62 16t23 49q0 28 -19.5 44t-55.5 16q-21 0 -44.5 -7
t-43.5 -21q-15 -9 -26.5 -6.5t-17.5 12t-3.5 21t14.5 20.5q27 19 61.5 29.5t69.5 10.5q61 0 97 -30t36 -79q0 -42 -24.5 -69t-58.5 -36v8q43 -6 69 -33t26 -72q0 -38 -19 -65t-51.5 -41t-73.5 -14z" />
    <glyph glyph-name="acute" unicode="&#xb4;" horiz-adv-x="356" 
d="M150 556q-7 -10 -17 -11.5t-19 3t-13 13.5t2 21l84 163q7 14 18 18t22.5 1.5t19.5 -10.5t9.5 -19t-6.5 -23z" />
    <glyph glyph-name="uni00B5" unicode="&#xb5;" horiz-adv-x="600" 
d="M135 -187q-20 0 -30 10.5t-10 30.5v598q0 21 10 31t30 10q19 0 30 -10t11 -31v-266q0 -65 26 -95.5t83 -30.5q63 0 102 41t39 110v241q0 21 10.5 31t29.5 10q20 0 30.5 -10t10.5 -31v-417q0 -42 -39 -42q-19 0 -29.5 10.5t-10.5 26.5v82h8q-16 -59 -57.5 -90t-94.5 -31
q-44 0 -77 16t-51 60h13l5 -212q1 -20 -9 -31t-30 -11z" />
    <glyph glyph-name="paragraph" unicode="&#xb6;" horiz-adv-x="588" 
d="M276 -187q-16 0 -24 9t-8 24v464q-60 0 -105 25.5t-69.5 70t-24.5 102.5q0 57 24.5 102t69.5 70t106 25h214q20 0 31 -10.5t11 -30.5v-818q0 -33 -32 -33q-16 0 -24.5 9t-8.5 24v797h-127v-797q0 -33 -33 -33z" />
    <glyph glyph-name="periodcentered" unicode="&#xb7;" horiz-adv-x="228" 
d="M115 211q-25 0 -40 15.5t-15 39.5t15 39.5t40 15.5t39.5 -15.5t14.5 -39.5t-14.5 -39.5t-39.5 -15.5z" />
    <glyph glyph-name="cedilla" unicode="&#xb8;" horiz-adv-x="402" 
d="M190 -192q-18 0 -37.5 2.5t-35.5 9.5q-11 4 -15 13t-1 18t11 13.5t20 -0.5t25.5 -7t30.5 -2q26 0 42 9.5t16 27.5q0 13 -9 20.5t-29 7.5q-8 0 -15.5 -1t-17.5 -3q-9 -3 -14 -3t-10 3q-4 4 -4.5 9.5t0.5 15.5l12 79h51l-13 -75l-24 6q12 3 23.5 5t21.5 2q36 0 60 -18
t24 -50q0 -37 -31 -59.5t-81 -22.5z" />
    <glyph glyph-name="uni00B9" unicode="&#xb9;" horiz-adv-x="380" 
d="M114 282q-31 0 -31 30q0 13 7.5 21t23.5 8h67v304h31l-83 -52q-16 -9 -27.5 -5.5t-17.5 13.5t-3 22t17 21l81 50q10 7 19 10.5t20 3.5q10 0 16.5 -4t10.5 -11.5t4 -17.5v-334h52q31 0 31 -29q0 -14 -8 -22t-23 -8h-187z" />
    <glyph glyph-name="ordmasculine" unicode="&#xba;" horiz-adv-x="339" 
d="M170 411q-43 0 -76 19t-52 53t-19 80t19 80t52 52.5t76 18.5q42 0 75 -18.5t52 -52.5t19 -80t-19 -80t-52 -53t-75 -19zM170 457q40 0 64 27.5t24 78.5t-24 78t-64 27q-41 0 -65 -26.5t-24 -78.5t24 -79t65 -27z" />
    <glyph glyph-name="guillemotright" unicode="&#xbb;" horiz-adv-x="441" 
d="M73 89q-14 5 -17.5 18.5t3.5 28.5l65 129l-65 130q-6 15 -2 28t17 19q12 5 23 1.5t18 -15.5l80 -135q9 -14 9 -27.5t-9 -27.5l-82 -136q-6 -11 -17.5 -14.5t-22.5 1.5zM254 89q-14 5 -17.5 18.5t3.5 28.5l65 129l-65 130q-6 15 -2 28t17 19q12 5 23 1.5t18 -15.5l80 -135
q9 -14 9 -27.5t-9 -27.5l-82 -136q-6 -11 -17.5 -14.5t-22.5 1.5z" />
    <glyph glyph-name="onequarter" unicode="&#xbc;" horiz-adv-x="893" 
d="M114 282q-31 0 -31 30q0 13 7.5 21t23.5 8h67v304h31l-83 -52q-16 -9 -27.5 -5.5t-17.5 13.5t-3 22t17 21l81 50q10 7 19 10.5t20 3.5q10 0 16.5 -4t10.5 -11.5t4 -17.5v-334h52q31 0 31 -29q0 -14 -8 -22t-23 -8h-187zM304 1q-7 -12 -16.5 -16t-19 -1.5t-16 9.5t-8 17.5
t5.5 22.5l388 671q7 12 17 16t19 1.5t16 -9.5t8 -17t-6 -23zM775 -3q-16 0 -25 8.5t-9 23.5v54h-161q-16 0 -25 9t-9 22q0 10 4.5 19.5t12.5 20.5l170 248q5 8 15 16t26 8q17 0 25.5 -9t8.5 -27v-248h36q13 0 21 -7t8 -22q0 -16 -8 -23t-21 -7h-36v-54q0 -15 -8.5 -23.5
t-24.5 -8.5zM741 142v204h16l-152 -221v17h136z" />
    <glyph glyph-name="onehalf" unicode="&#xbd;" horiz-adv-x="937" 
d="M114 282q-31 0 -31 30q0 13 7.5 21t23.5 8h67v304h31l-83 -52q-16 -9 -27.5 -5.5t-17.5 13.5t-3 22t17 21l81 50q10 7 19 10.5t20 3.5q10 0 16.5 -4t10.5 -11.5t4 -17.5v-334h52q31 0 31 -29q0 -14 -8 -22t-23 -8h-187zM304 1q-7 -12 -16.5 -16t-19 -1.5t-16 9.5t-8 17.5
t5.5 22.5l388 671q7 12 17 16t19 1.5t16 -9.5t8 -17t-6 -23zM642 0q-15 0 -24 8t-9 21q0 12 5 20.5t13 17.5l119 129q29 31 41.5 56t12.5 51q0 31 -18 48t-52 17q-22 0 -45 -7.5t-43 -22.5q-13 -8 -24 -5.5t-17 12t-3.5 21.5t14.5 21q26 19 61 29.5t69 10.5q40 0 69.5 -14.5
t45.5 -40.5t16 -62q0 -34 -16 -66t-51 -69l-117 -125v9h178q31 0 31 -29q0 -14 -8 -22t-23 -8h-225z" />
    <glyph glyph-name="threequarters" unicode="&#xbe;" horiz-adv-x="893" 
d="M187 278q-39 0 -73.5 10.5t-59.5 29.5q-13 9 -15.5 20.5t3 21.5t17 12.5t25.5 -6.5q22 -15 46.5 -22t50.5 -7q35 0 58.5 16.5t23.5 51.5q0 33 -23.5 47t-62.5 14h-50q-16 0 -24 8t-8 22t8 21.5t24 7.5h39q39 0 62 16t23 49q0 28 -19.5 44t-55.5 16q-21 0 -44.5 -7
t-43.5 -21q-15 -9 -26.5 -6.5t-17.5 12t-3.5 21t14.5 20.5q27 19 61.5 29.5t69.5 10.5q61 0 97 -30t36 -79q0 -42 -24.5 -69t-58.5 -36v8q43 -6 69 -33t26 -72q0 -38 -19 -65t-51.5 -41t-73.5 -14zM304 1q-7 -12 -16.5 -16t-19 -1.5t-16 9.5t-8 17.5t5.5 22.5l388 671
q7 12 17 16t19 1.5t16 -9.5t8 -17t-6 -23zM775 -3q-16 0 -25 8.5t-9 23.5v54h-161q-16 0 -25 9t-9 22q0 10 4.5 19.5t12.5 20.5l170 248q5 8 15 16t26 8q17 0 25.5 -9t8.5 -27v-248h36q13 0 21 -7t8 -22q0 -16 -8 -23t-21 -7h-36v-54q0 -15 -8.5 -23.5t-24.5 -8.5zM741 142
v204h16l-152 -221v17h136z" />
    <glyph glyph-name="questiondown" unicode="&#xbf;" horiz-adv-x="443" 
d="M216 -189q-57 0 -100 18.5t-67.5 52.5t-24.5 78q0 43 19.5 81t72.5 88q32 30 50.5 54.5t28 48t12.5 49.5q1 12 8 19t19 7q13 0 20 -8t7 -23q0 -31 -7.5 -59t-26 -57t-51.5 -63q-40 -40 -54.5 -68.5t-14.5 -57.5q0 -40 30 -63.5t83 -23.5q46 0 86 12.5t76 39.5
q15 10 27.5 10t21 -7.5t10.5 -18.5t-3.5 -23t-19.5 -22q-39 -28 -90.5 -46t-111.5 -18zM235 380q-24 0 -39.5 15.5t-15.5 39.5t15.5 39.5t39.5 15.5q26 0 40.5 -15.5t14.5 -39.5t-14.5 -39.5t-40.5 -15.5z" />
    <glyph glyph-name="Agrave" unicode="&#xc0;" horiz-adv-x="729" 
d="M72 -7q-16 0 -25.5 7.5t-11 20t5.5 28.5l275 626q9 20 21.5 28.5t27.5 8.5t27.5 -8.5t20.5 -28.5l276 -626q8 -16 6.5 -29t-10.5 -20t-25 -7q-18 0 -29 9.5t-18 27.5l-74 171l40 -21h-430l41 21l-73 -171q-9 -19 -19 -28t-26 -9zM364 609l-161 -379l-24 19h370l-22 -19
l-161 379h-2zM331 769l-104 123q-9 11 -8.5 21.5t7.5 18.5t17.5 11.5t22 0.5t19.5 -16l89 -129q7 -11 4.5 -20t-10.5 -14.5t-18 -5t-19 9.5z" />
    <glyph glyph-name="Aacute" unicode="&#xc1;" horiz-adv-x="729" 
d="M72 -7q-16 0 -25.5 7.5t-11 20t5.5 28.5l275 626q9 20 21.5 28.5t27.5 8.5t27.5 -8.5t20.5 -28.5l276 -626q8 -16 6.5 -29t-10.5 -20t-25 -7q-18 0 -29 9.5t-18 27.5l-74 171l40 -21h-430l41 21l-73 -171q-9 -19 -19 -28t-26 -9zM364 609l-161 -379l-24 19h370l-22 -19
l-161 379h-2zM401 769q-8 -9 -18.5 -9.5t-18.5 5t-10.5 14.5t4.5 20l89 129q9 13 20 16t22 -0.5t17.5 -11.5t7 -18.5t-8.5 -21.5z" />
    <glyph glyph-name="Acircumflex" unicode="&#xc2;" horiz-adv-x="729" 
d="M72 -7q-16 0 -25.5 7.5t-11 20t5.5 28.5l275 626q9 20 21.5 28.5t27.5 8.5t27.5 -8.5t20.5 -28.5l276 -626q8 -16 6.5 -29t-10.5 -20t-25 -7q-18 0 -29 9.5t-18 27.5l-74 171l40 -21h-430l41 21l-73 -171q-9 -19 -19 -28t-26 -9zM364 609l-161 -379l-24 19h370l-22 -19
l-161 379h-2zM270 768q-9 -9 -19.5 -10t-18.5 4t-10 14t5 19l88 123q10 15 23 21.5t28 6.5q16 0 28.5 -6.5t23.5 -21.5l87 -123q8 -10 6 -19t-10.5 -14t-19 -4t-18.5 10l-97 116z" />
    <glyph glyph-name="Atilde" unicode="&#xc3;" horiz-adv-x="729" 
d="M72 -7q-16 0 -25.5 7.5t-11 20t5.5 28.5l275 626q9 20 21.5 28.5t27.5 8.5t27.5 -8.5t20.5 -28.5l276 -626q8 -16 6.5 -29t-10.5 -20t-25 -7q-18 0 -29 9.5t-18 27.5l-74 171l40 -21h-430l41 21l-73 -171q-9 -19 -19 -28t-26 -9zM364 609l-161 -379l-24 19h370l-22 -19
l-161 379h-2zM182 780q-11 0 -17.5 7.5t-4.5 20.5q10 53 41.5 82t75.5 29q27 0 51 -11.5t46.5 -26.5t43 -26.5t40.5 -11.5q27 0 44 17t22 45q3 11 9.5 16t16.5 4q11 0 18 -7.5t4 -20.5q-10 -53 -40.5 -82t-75.5 -29q-27 0 -51.5 11.5t-46.5 26t-43 26.5t-41 12
q-26 0 -43.5 -17t-22.5 -45q-3 -10 -9.5 -15.5t-16.5 -4.5z" />
    <glyph glyph-name="Adieresis" unicode="&#xc4;" horiz-adv-x="729" 
d="M72 -7q-16 0 -25.5 7.5t-11 20t5.5 28.5l275 626q9 20 21.5 28.5t27.5 8.5t27.5 -8.5t20.5 -28.5l276 -626q8 -16 6.5 -29t-10.5 -20t-25 -7q-18 0 -29 9.5t-18 27.5l-74 171l40 -21h-430l41 21l-73 -171q-9 -19 -19 -28t-26 -9zM364 609l-161 -379l-24 19h370l-22 -19
l-161 379h-2zM454 802q-23 0 -35.5 12t-12.5 35q0 22 12.5 34t35.5 12q22 0 34 -12t12 -34q0 -23 -12 -35t-34 -12zM279 802q-22 0 -34.5 12t-12.5 35q0 22 12.5 34t34.5 12q23 0 35 -12t12 -34q0 -23 -12 -35t-35 -12z" />
    <glyph glyph-name="Aring" unicode="&#xc5;" horiz-adv-x="729" 
d="M72 -7q-16 0 -25.5 7.5t-11 20t5.5 28.5l275 626q9 20 21.5 28.5t27.5 8.5t27.5 -8.5t20.5 -28.5l276 -626q8 -16 6.5 -29t-10.5 -20t-25 -7q-18 0 -29 9.5t-18 27.5l-74 171l40 -21h-430l41 21l-73 -171q-9 -19 -19 -28t-26 -9zM364 609l-161 -379l-24 19h370l-22 -19
l-161 379h-2zM366 758q-33 0 -60 15.5t-43 42t-16 58.5q0 33 16 58.5t43 41t60 15.5q34 0 60.5 -15.5t42.5 -41t16 -58.5q0 -32 -16 -58.5t-42.5 -42t-60.5 -15.5zM366 801q32 0 52 21t20 52q0 30 -20 51t-52 21q-31 0 -51.5 -21t-20.5 -51q0 -31 20.5 -52t51.5 -21z" />
    <glyph glyph-name="AE" unicode="&#xc6;" horiz-adv-x="981" 
d="M42 -7q-18 0 -28 7.5t-10 19.5t8 25l385 635q8 13 19 19t26 6h458q18 0 27.5 -9t9.5 -25q0 -17 -9.5 -26t-27.5 -9h-420l17 29l63 -295l-29 22h349q18 0 27.5 -8.5t9.5 -25.5t-9.5 -26t-27.5 -9h-334l20 22l64 -304l-32 28h302q18 0 27.5 -9t9.5 -25q0 -17 -9.5 -26
t-27.5 -9h-302q-33 0 -41 33l-36 171l30 -24h-390l32 22l-108 -182q-8 -13 -18 -20t-25 -7zM433 608l-225 -379l-9 20h331l-14 -22l-81 381h-2z" />
    <glyph glyph-name="Ccedilla" unicode="&#xc7;" horiz-adv-x="673" 
d="M392 -9q-104 0 -178 44t-113.5 125t-39.5 193q0 84 22.5 150.5t65 113t104.5 72t139 25.5q62 0 118 -17.5t97 -51.5q13 -10 17.5 -22.5t1 -24t-12 -19t-20.5 -7.5t-27 10q-36 29 -79 43t-93 14q-79 0 -134 -33.5t-83 -97.5t-28 -155t28 -155.5t83 -98t134 -33.5
q49 0 93 14.5t81 43.5q15 10 27 9.5t20 -7.5t11.5 -18t0 -23t-15.5 -21q-42 -36 -98.5 -54.5t-120.5 -18.5zM388 -192q-18 0 -37.5 2.5t-35.5 9.5q-11 4 -15 13t-1 18t11 13.5t20 -0.5t25.5 -7t30.5 -2q26 0 42 9.5t16 27.5q0 13 -9 20.5t-29 7.5q-8 0 -15.5 -1t-17.5 -3
q-9 -3 -14 -3t-10 3q-4 4 -4.5 9.5t0.5 15.5l12 79h51l-13 -75l-24 6q12 3 23.5 5t21.5 2q36 0 60 -18t24 -50q0 -37 -31 -59.5t-81 -22.5z" />
    <glyph glyph-name="Egrave" unicode="&#xc8;" horiz-adv-x="583" 
d="M132 0q-22 0 -33.5 11.5t-11.5 33.5v615q0 22 11.5 33.5t33.5 11.5h372q17 0 26 -9t9 -25q0 -17 -9 -26t-26 -9h-337v-244h316q17 0 26 -8.5t9 -25.5t-9 -26t-26 -9h-316v-254h337q17 0 26 -9t9 -25q0 -17 -9 -26t-26 -9h-372zM289 769l-104 123q-9 11 -8.5 21.5
t7.5 18.5t17.5 11.5t22 0.5t19.5 -16l89 -129q7 -11 4.5 -20t-10.5 -14.5t-18 -5t-19 9.5z" />
    <glyph glyph-name="Eacute" unicode="&#xc9;" horiz-adv-x="583" 
d="M132 0q-22 0 -33.5 11.5t-11.5 33.5v615q0 22 11.5 33.5t33.5 11.5h372q17 0 26 -9t9 -25q0 -17 -9 -26t-26 -9h-337v-244h316q17 0 26 -8.5t9 -25.5t-9 -26t-26 -9h-316v-254h337q17 0 26 -9t9 -25q0 -17 -9 -26t-26 -9h-372zM359 769q-8 -9 -18.5 -9.5t-18.5 5
t-10.5 14.5t4.5 20l89 129q9 13 20 16t22 -0.5t17.5 -11.5t7 -18.5t-8.5 -21.5z" />
    <glyph glyph-name="Ecircumflex" unicode="&#xca;" horiz-adv-x="583" 
d="M132 0q-22 0 -33.5 11.5t-11.5 33.5v615q0 22 11.5 33.5t33.5 11.5h372q17 0 26 -9t9 -25q0 -17 -9 -26t-26 -9h-337v-244h316q17 0 26 -8.5t9 -25.5t-9 -26t-26 -9h-316v-254h337q17 0 26 -9t9 -25q0 -17 -9 -26t-26 -9h-372zM228 768q-9 -9 -19.5 -10t-18.5 4t-10 14
t5 19l88 123q10 15 23 21.5t28 6.5q16 0 28.5 -6.5t23.5 -21.5l87 -123q8 -10 6 -19t-10.5 -14t-19 -4t-18.5 10l-97 116z" />
    <glyph glyph-name="Edieresis" unicode="&#xcb;" horiz-adv-x="583" 
d="M132 0q-22 0 -33.5 11.5t-11.5 33.5v615q0 22 11.5 33.5t33.5 11.5h372q17 0 26 -9t9 -25q0 -17 -9 -26t-26 -9h-337v-244h316q17 0 26 -8.5t9 -25.5t-9 -26t-26 -9h-316v-254h337q17 0 26 -9t9 -25q0 -17 -9 -26t-26 -9h-372zM412 802q-23 0 -35.5 12t-12.5 35
q0 22 12.5 34t35.5 12q22 0 34 -12t12 -34q0 -23 -12 -35t-34 -12zM237 802q-22 0 -34.5 12t-12.5 35q0 22 12.5 34t34.5 12q23 0 35 -12t12 -34q0 -23 -12 -35t-35 -12z" />
    <glyph glyph-name="Igrave" unicode="&#xcc;" horiz-adv-x="257" 
d="M128 -7q-20 0 -30.5 11.5t-10.5 31.5v633q0 21 10.5 32t30.5 11t30.5 -11t10.5 -32v-633q0 -20 -10 -31.5t-31 -11.5zM93 769l-104 123q-9 11 -8.5 21.5t7.5 18.5t17.5 11.5t22 0.5t19.5 -16l89 -129q7 -11 4.5 -20t-10.5 -14.5t-18 -5t-19 9.5z" />
    <glyph glyph-name="Iacute" unicode="&#xcd;" horiz-adv-x="257" 
d="M128 -7q-20 0 -30.5 11.5t-10.5 31.5v633q0 21 10.5 32t30.5 11t30.5 -11t10.5 -32v-633q0 -20 -10 -31.5t-31 -11.5zM163 769q-8 -9 -18.5 -9.5t-18.5 5t-10.5 14.5t4.5 20l89 129q9 13 20 16t22 -0.5t17.5 -11.5t7 -18.5t-8.5 -21.5z" />
    <glyph glyph-name="Icircumflex" unicode="&#xce;" horiz-adv-x="257" 
d="M128 -7q-20 0 -30.5 11.5t-10.5 31.5v633q0 21 10.5 32t30.5 11t30.5 -11t10.5 -32v-633q0 -20 -10 -31.5t-31 -11.5zM32 768q-9 -9 -19.5 -10t-18.5 4t-10 14t5 19l88 123q10 15 23 21.5t28 6.5q16 0 28.5 -6.5t23.5 -21.5l87 -123q8 -10 6 -19t-10.5 -14t-19 -4
t-18.5 10l-97 116z" />
    <glyph glyph-name="Idieresis" unicode="&#xcf;" horiz-adv-x="257" 
d="M128 -7q-20 0 -30.5 11.5t-10.5 31.5v633q0 21 10.5 32t30.5 11t30.5 -11t10.5 -32v-633q0 -20 -10 -31.5t-31 -11.5zM216 802q-23 0 -35.5 12t-12.5 35q0 22 12.5 34t35.5 12q22 0 34 -12t12 -34q0 -23 -12 -35t-34 -12zM41 802q-22 0 -34.5 12t-12.5 35q0 22 12.5 34
t34.5 12q23 0 35 -12t12 -34q0 -23 -12 -35t-35 -12z" />
    <glyph glyph-name="Eth" unicode="&#xd0;" horiz-adv-x="742" 
d="M132 0q-22 0 -33.5 11.5t-11.5 33.5v615q0 22 11.5 33.5t33.5 11.5h193q171 0 264 -90t93 -262q0 -86 -23.5 -151.5t-69.5 -110.5t-112 -68t-152 -23h-193zM169 70h150q70 0 121.5 18t86 53t51.5 88.5t17 123.5q0 141 -69 211.5t-207 70.5h-150v-565zM25 326
q-16 0 -24.5 8.5t-8.5 23.5t8.5 23.5t24.5 8.5h315q16 0 24.5 -8t8.5 -24q0 -15 -8.5 -23.5t-24.5 -8.5h-315z" />
    <glyph glyph-name="Ntilde" unicode="&#xd1;" horiz-adv-x="740" 
d="M126 -7q-19 0 -29 10.5t-10 30.5v636q0 20 10 31t26 11t23.5 -5.5t17.5 -19.5l436 -581h-24v566q0 19 10 29.5t29 10.5q18 0 27.5 -10.5t9.5 -29.5v-639q0 -19 -8.5 -29.5t-24.5 -10.5q-15 0 -24 6t-19 19l-435 581h23v-565q0 -20 -10 -30.5t-28 -10.5zM186 780
q-11 0 -17.5 7.5t-4.5 20.5q10 53 41.5 82t75.5 29q27 0 51 -11.5t46.5 -26.5t43 -26.5t40.5 -11.5q27 0 44 17t22 45q3 11 9.5 16t16.5 4q11 0 18 -7.5t4 -20.5q-10 -53 -40.5 -82t-75.5 -29q-27 0 -51.5 11.5t-46.5 26t-43 26.5t-41 12q-26 0 -43.5 -17t-22.5 -45
q-3 -10 -9.5 -15.5t-16.5 -4.5z" />
    <glyph glyph-name="Ograve" unicode="&#xd2;" horiz-adv-x="767" 
d="M383 -9q-98 0 -170.5 44.5t-112 125.5t-39.5 192q0 84 22.5 150.5t64.5 113t101.5 72t133.5 25.5q100 0 172.5 -44t112 -124.5t39.5 -191.5q0 -84 -23 -151t-65 -114t-101.5 -72.5t-134.5 -25.5zM383 64q76 0 128.5 34t80.5 99t28 156q0 137 -61.5 212.5t-175.5 75.5
q-74 0 -126.5 -34t-80.5 -98.5t-28 -155.5q0 -136 62 -212.5t173 -76.5zM348 769l-104 123q-9 11 -8.5 21.5t7.5 18.5t17.5 11.5t22 0.5t19.5 -16l89 -129q7 -11 4.5 -20t-10.5 -14.5t-18 -5t-19 9.5z" />
    <glyph glyph-name="Oacute" unicode="&#xd3;" horiz-adv-x="767" 
d="M383 -9q-98 0 -170.5 44.5t-112 125.5t-39.5 192q0 84 22.5 150.5t64.5 113t101.5 72t133.5 25.5q100 0 172.5 -44t112 -124.5t39.5 -191.5q0 -84 -23 -151t-65 -114t-101.5 -72.5t-134.5 -25.5zM383 64q76 0 128.5 34t80.5 99t28 156q0 137 -61.5 212.5t-175.5 75.5
q-74 0 -126.5 -34t-80.5 -98.5t-28 -155.5q0 -136 62 -212.5t173 -76.5zM418 769q-8 -9 -18.5 -9.5t-18.5 5t-10.5 14.5t4.5 20l89 129q9 13 20 16t22 -0.5t17.5 -11.5t7 -18.5t-8.5 -21.5z" />
    <glyph glyph-name="Ocircumflex" unicode="&#xd4;" horiz-adv-x="767" 
d="M383 -9q-98 0 -170.5 44.5t-112 125.5t-39.5 192q0 84 22.5 150.5t64.5 113t101.5 72t133.5 25.5q100 0 172.5 -44t112 -124.5t39.5 -191.5q0 -84 -23 -151t-65 -114t-101.5 -72.5t-134.5 -25.5zM383 64q76 0 128.5 34t80.5 99t28 156q0 137 -61.5 212.5t-175.5 75.5
q-74 0 -126.5 -34t-80.5 -98.5t-28 -155.5q0 -136 62 -212.5t173 -76.5zM287 768q-9 -9 -19.5 -10t-18.5 4t-10 14t5 19l88 123q10 15 23 21.5t28 6.5q16 0 28.5 -6.5t23.5 -21.5l87 -123q8 -10 6 -19t-10.5 -14t-19 -4t-18.5 10l-97 116z" />
    <glyph glyph-name="Otilde" unicode="&#xd5;" horiz-adv-x="767" 
d="M383 -9q-98 0 -170.5 44.5t-112 125.5t-39.5 192q0 84 22.5 150.5t64.5 113t101.5 72t133.5 25.5q100 0 172.5 -44t112 -124.5t39.5 -191.5q0 -84 -23 -151t-65 -114t-101.5 -72.5t-134.5 -25.5zM383 64q76 0 128.5 34t80.5 99t28 156q0 137 -61.5 212.5t-175.5 75.5
q-74 0 -126.5 -34t-80.5 -98.5t-28 -155.5q0 -136 62 -212.5t173 -76.5zM199 780q-11 0 -17.5 7.5t-4.5 20.5q10 53 41.5 82t75.5 29q27 0 51 -11.5t46.5 -26.5t43 -26.5t40.5 -11.5q27 0 44 17t22 45q3 11 9.5 16t16.5 4q11 0 18 -7.5t4 -20.5q-10 -53 -40.5 -82t-75.5 -29
q-27 0 -51.5 11.5t-46.5 26t-43 26.5t-41 12q-26 0 -43.5 -17t-22.5 -45q-3 -10 -9.5 -15.5t-16.5 -4.5z" />
    <glyph glyph-name="Odieresis" unicode="&#xd6;" horiz-adv-x="767" 
d="M383 -9q-98 0 -170.5 44.5t-112 125.5t-39.5 192q0 84 22.5 150.5t64.5 113t101.5 72t133.5 25.5q100 0 172.5 -44t112 -124.5t39.5 -191.5q0 -84 -23 -151t-65 -114t-101.5 -72.5t-134.5 -25.5zM383 64q76 0 128.5 34t80.5 99t28 156q0 137 -61.5 212.5t-175.5 75.5
q-74 0 -126.5 -34t-80.5 -98.5t-28 -155.5q0 -136 62 -212.5t173 -76.5zM471 802q-23 0 -35.5 12t-12.5 35q0 22 12.5 34t35.5 12q22 0 34 -12t12 -34q0 -23 -12 -35t-34 -12zM296 802q-22 0 -34.5 12t-12.5 35q0 22 12.5 34t34.5 12q23 0 35 -12t12 -34q0 -23 -12 -35
t-35 -12z" />
    <glyph glyph-name="multiply" unicode="&#xd7;" horiz-adv-x="600" 
d="M129 70q-12 -12 -24.5 -11t-21 9.5t-9 21t10.5 23.5l171 171l-174 174q-9 10 -10.5 20t3.5 18.5t13.5 13.5t18.5 3.5t19 -11.5l174 -173l173 173q12 12 24.5 11t21.5 -9.5t10 -21t-12 -24.5l-173 -174l171 -171q9 -9 10.5 -19t-3.5 -18.5t-13 -13t-18 -3.5t-20 11
l-171 171z" />
    <glyph glyph-name="Oslash" unicode="&#xd8;" horiz-adv-x="767" 
d="M383 -9q-98 0 -170.5 44.5t-112 125.5t-39.5 192q0 84 22.5 150.5t64.5 113t101.5 72t133.5 25.5q100 0 172.5 -44t112 -124.5t39.5 -191.5q0 -84 -23 -151t-65 -114t-101.5 -72.5t-134.5 -25.5zM383 64q76 0 128.5 34t80.5 99t28 156q0 137 -61.5 212.5t-175.5 75.5
q-74 0 -126.5 -34t-80.5 -98.5t-28 -155.5q0 -136 62 -212.5t173 -76.5zM201 -26q-7 -12 -16.5 -15t-19.5 -0.5t-17 10t-8.5 18t5.5 22.5l41 70l24 40l296 506l19 35l41 71q7 12 16.5 15t20 0.5t17.5 -9.5t8.5 -18t-6.5 -23l-41 -70l-24 -40l-295 -506l-19 -34z" />
    <glyph glyph-name="Ugrave" unicode="&#xd9;" horiz-adv-x="728" 
d="M365 -9q-70 0 -122.5 18.5t-88.5 55t-54 90.5t-18 124v391q0 21 10.5 31.5t30.5 10.5t30.5 -10.5t10.5 -31.5v-387q0 -110 51 -164.5t150 -54.5t149 54.5t50 164.5v387q0 21 11 31.5t31 10.5q19 0 29.5 -10.5t10.5 -31.5v-391q0 -93 -31.5 -158t-94.5 -97.5t-155 -32.5z
M330 769l-104 123q-9 11 -8.5 21.5t7.5 18.5t17.5 11.5t22 0.5t19.5 -16l89 -129q7 -11 4.5 -20t-10.5 -14.5t-18 -5t-19 9.5z" />
    <glyph glyph-name="Uacute" unicode="&#xda;" horiz-adv-x="728" 
d="M365 -9q-70 0 -122.5 18.5t-88.5 55t-54 90.5t-18 124v391q0 21 10.5 31.5t30.5 10.5t30.5 -10.5t10.5 -31.5v-387q0 -110 51 -164.5t150 -54.5t149 54.5t50 164.5v387q0 21 11 31.5t31 10.5q19 0 29.5 -10.5t10.5 -31.5v-391q0 -93 -31.5 -158t-94.5 -97.5t-155 -32.5z
M400 769q-8 -9 -18.5 -9.5t-18.5 5t-10.5 14.5t4.5 20l89 129q9 13 20 16t22 -0.5t17.5 -11.5t7 -18.5t-8.5 -21.5z" />
    <glyph glyph-name="Ucircumflex" unicode="&#xdb;" horiz-adv-x="728" 
d="M365 -9q-70 0 -122.5 18.5t-88.5 55t-54 90.5t-18 124v391q0 21 10.5 31.5t30.5 10.5t30.5 -10.5t10.5 -31.5v-387q0 -110 51 -164.5t150 -54.5t149 54.5t50 164.5v387q0 21 11 31.5t31 10.5q19 0 29.5 -10.5t10.5 -31.5v-391q0 -93 -31.5 -158t-94.5 -97.5t-155 -32.5z
M269 768q-9 -9 -19.5 -10t-18.5 4t-10 14t5 19l88 123q10 15 23 21.5t28 6.5q16 0 28.5 -6.5t23.5 -21.5l87 -123q8 -10 6 -19t-10.5 -14t-19 -4t-18.5 10l-97 116z" />
    <glyph glyph-name="Udieresis" unicode="&#xdc;" horiz-adv-x="728" 
d="M365 -9q-70 0 -122.5 18.5t-88.5 55t-54 90.5t-18 124v391q0 21 10.5 31.5t30.5 10.5t30.5 -10.5t10.5 -31.5v-387q0 -110 51 -164.5t150 -54.5t149 54.5t50 164.5v387q0 21 11 31.5t31 10.5q19 0 29.5 -10.5t10.5 -31.5v-391q0 -93 -31.5 -158t-94.5 -97.5t-155 -32.5z
M453 802q-23 0 -35.5 12t-12.5 35q0 22 12.5 34t35.5 12q22 0 34 -12t12 -34q0 -23 -12 -35t-34 -12zM278 802q-22 0 -34.5 12t-12.5 35q0 22 12.5 34t34.5 12q23 0 35 -12t12 -34q0 -23 -12 -35t-35 -12z" />
    <glyph glyph-name="Yacute" unicode="&#xdd;" horiz-adv-x="596" 
d="M298 -7q-20 0 -30.5 11.5t-10.5 32.5v328l18 -57l-251 346q-9 13 -8.5 26.5t10.5 22.5t26 9q14 0 25 -6.5t20 -20.5l213 -294h-21l213 294q11 15 21 21t24 6q16 0 25 -8.5t9.5 -22t-9.5 -28.5l-250 -345l17 57v-328q0 -44 -41 -44zM333 769q-8 -9 -18.5 -9.5t-18.5 5
t-10.5 14.5t4.5 20l89 129q9 13 20 16t22 -0.5t17.5 -11.5t7 -18.5t-8.5 -21.5z" />
    <glyph glyph-name="Thorn" unicode="&#xde;" horiz-adv-x="634" 
d="M128 -5q-20 0 -30.5 11.5t-10.5 31.5v629q0 21 11 32t31 11t30 -10.5t10 -28.5v-94h198q113 0 174 -55t61 -156t-61 -156.5t-174 -55.5h-198v-116q0 -20 -10 -31.5t-31 -11.5zM169 222h188q81 0 122 36.5t41 107.5t-41 107t-122 36h-188v-287z" />
    <glyph glyph-name="germandbls" unicode="&#xdf;" horiz-adv-x="615" 
d="M403 -9q-43 0 -87 12.5t-78 36.5q-11 7 -15 17t-2 20t9.5 17t17.5 8t21 -6q33 -21 69 -30.5t66 -9.5q49 0 77 21t28 57q0 29 -24 48.5t-83 37.5q-80 25 -112 56.5t-32 79.5q0 21 7 40.5t24 41t47 46.5q31 27 43.5 48.5t12.5 46.5q0 33 -23.5 52.5t-66.5 19.5
q-70 0 -107.5 -42t-37.5 -119v-455q0 -20 -11 -31t-30 -11q-20 0 -30 11t-10 31v445q0 112 59 173t166 61q53 0 91 -15.5t58 -44.5t20 -68q0 -38 -17 -68t-59 -67q-23 -20 -36 -34.5t-18 -26.5t-5 -26q0 -26 23 -45t84 -38q77 -23 110 -57.5t33 -87.5q0 -43 -22.5 -75.5
t-63.5 -51t-96 -18.5z" />
    <glyph glyph-name="agrave" unicode="&#xe0;" horiz-adv-x="530" 
d="M229 -9q-50 0 -89.5 19.5t-62.5 53.5t-23 76q0 54 27.5 85t91 44t173.5 13h45v-53h-44q-81 0 -127.5 -7.5t-65 -25.5t-18.5 -51q0 -41 28.5 -67t77.5 -26q40 0 70.5 19t48 52t17.5 76v114q0 62 -25 89.5t-82 27.5q-35 0 -70 -9t-74 -29q-14 -7 -24 -4.5t-16 10.5t-7 18.5
t4.5 20.5t17.5 16q44 22 87 32t82 10q63 0 104 -20.5t61 -62t20 -106.5v-271q0 -20 -9.5 -31t-27.5 -11q-19 0 -29 11t-10 31v78h9q-8 -38 -30.5 -65t-55.5 -42t-74 -15zM240 556l-101 156q-8 12 -6 23t10 19t19 10.5t22 -1.5t18 -18l84 -163q6 -12 2.5 -21t-13 -13.5
t-19 -3t-16.5 11.5z" />
    <glyph glyph-name="aacute" unicode="&#xe1;" horiz-adv-x="530" 
d="M229 -9q-50 0 -89.5 19.5t-62.5 53.5t-23 76q0 54 27.5 85t91 44t173.5 13h45v-53h-44q-81 0 -127.5 -7.5t-65 -25.5t-18.5 -51q0 -41 28.5 -67t77.5 -26q40 0 70.5 19t48 52t17.5 76v114q0 62 -25 89.5t-82 27.5q-35 0 -70 -9t-74 -29q-14 -7 -24 -4.5t-16 10.5t-7 18.5
t4.5 20.5t17.5 16q44 22 87 32t82 10q63 0 104 -20.5t61 -62t20 -106.5v-271q0 -20 -9.5 -31t-27.5 -11q-19 0 -29 11t-10 31v78h9q-8 -38 -30.5 -65t-55.5 -42t-74 -15zM305 556q-7 -10 -17 -11.5t-19 3t-13 13.5t2 21l84 163q7 14 18 18t22.5 1.5t19.5 -10.5t9.5 -19
t-6.5 -23z" />
    <glyph glyph-name="acircumflex" unicode="&#xe2;" horiz-adv-x="530" 
d="M229 -9q-50 0 -89.5 19.5t-62.5 53.5t-23 76q0 54 27.5 85t91 44t173.5 13h45v-53h-44q-81 0 -127.5 -7.5t-65 -25.5t-18.5 -51q0 -41 28.5 -67t77.5 -26q40 0 70.5 19t48 52t17.5 76v114q0 62 -25 89.5t-82 27.5q-35 0 -70 -9t-74 -29q-14 -7 -24 -4.5t-16 10.5t-7 18.5
t4.5 20.5t17.5 16q44 22 87 32t82 10q63 0 104 -20.5t61 -62t20 -106.5v-271q0 -20 -9.5 -31t-27.5 -11q-19 0 -29 11t-10 31v78h9q-8 -38 -30.5 -65t-55.5 -42t-74 -15zM404 582q6 -12 2.5 -21.5t-12 -13.5t-18 -2.5t-15.5 11.5l-89 143l-89 -143q-6 -10 -15.5 -11.5
t-18 2.5t-12 13.5t2.5 21.5l83 152q9 16 21 24t28 8t28 -8t21 -24z" />
    <glyph glyph-name="atilde" unicode="&#xe3;" horiz-adv-x="530" 
d="M229 -9q-50 0 -89.5 19.5t-62.5 53.5t-23 76q0 54 27.5 85t91 44t173.5 13h45v-53h-44q-81 0 -127.5 -7.5t-65 -25.5t-18.5 -51q0 -41 28.5 -67t77.5 -26q40 0 70.5 19t48 52t17.5 76v114q0 62 -25 89.5t-82 27.5q-35 0 -70 -9t-74 -29q-14 -7 -24 -4.5t-16 10.5t-7 18.5
t4.5 20.5t17.5 16q44 22 87 32t82 10q63 0 104 -20.5t61 -62t20 -106.5v-271q0 -20 -9.5 -31t-27.5 -11q-19 0 -29 11t-10 31v78h9q-8 -38 -30.5 -65t-55.5 -42t-74 -15zM115 587q-10 0 -16.5 7t-3.5 21q4 24 12 44t21 35t30.5 23.5t40.5 8.5q25 0 43.5 -11.5t35 -26
t32.5 -26.5t34 -12q23 0 38.5 17.5t20.5 46.5q2 10 8.5 14.5t17.5 3.5q10 0 16.5 -7t3.5 -21q-5 -31 -18.5 -56t-34.5 -40t-51 -15q-25 0 -43.5 11.5t-35 26.5t-32.5 26.5t-34 11.5q-23 0 -38 -17t-21 -47q-2 -9 -8.5 -14t-17.5 -4z" />
    <glyph glyph-name="adieresis" unicode="&#xe4;" horiz-adv-x="530" 
d="M229 -9q-50 0 -89.5 19.5t-62.5 53.5t-23 76q0 54 27.5 85t91 44t173.5 13h45v-53h-44q-81 0 -127.5 -7.5t-65 -25.5t-18.5 -51q0 -41 28.5 -67t77.5 -26q40 0 70.5 19t48 52t17.5 76v114q0 62 -25 89.5t-82 27.5q-35 0 -70 -9t-74 -29q-14 -7 -24 -4.5t-16 10.5t-7 18.5
t4.5 20.5t17.5 16q44 22 87 32t82 10q63 0 104 -20.5t61 -62t20 -106.5v-271q0 -20 -9.5 -31t-27.5 -11q-19 0 -29 11t-10 31v78h9q-8 -38 -30.5 -65t-55.5 -42t-74 -15zM360 606q-23 0 -35.5 12t-12.5 34t12.5 34.5t35.5 12.5q22 0 34 -12.5t12 -34.5t-12 -34t-34 -12z
M185 606q-22 0 -34.5 12t-12.5 34t12.5 34.5t34.5 12.5q23 0 35 -12.5t12 -34.5t-12 -34t-35 -12z" />
    <glyph glyph-name="aring" unicode="&#xe5;" horiz-adv-x="530" 
d="M229 -9q-50 0 -89.5 19.5t-62.5 53.5t-23 76q0 54 27.5 85t91 44t173.5 13h45v-53h-44q-81 0 -127.5 -7.5t-65 -25.5t-18.5 -51q0 -41 28.5 -67t77.5 -26q40 0 70.5 19t48 52t17.5 76v114q0 62 -25 89.5t-82 27.5q-35 0 -70 -9t-74 -29q-14 -7 -24 -4.5t-16 10.5t-7 18.5
t4.5 20.5t17.5 16q44 22 87 32t82 10q63 0 104 -20.5t61 -62t20 -106.5v-271q0 -20 -9.5 -31t-27.5 -11q-19 0 -29 11t-10 31v78h9q-8 -38 -30.5 -65t-55.5 -42t-74 -15zM272 547q-33 0 -60 15.5t-43 42t-16 58.5q0 33 16 58.5t43 41t60 15.5q34 0 60.5 -15.5t42.5 -41
t16 -58.5q0 -32 -16 -58.5t-42.5 -42t-60.5 -15.5zM272 590q32 0 52 21t20 52q0 30 -20 51t-52 21q-31 0 -51.5 -21t-20.5 -51q0 -31 20.5 -52t51.5 -21z" />
    <glyph glyph-name="ae" unicode="&#xe6;" horiz-adv-x="861" 
d="M234 -9q-52 0 -92.5 19.5t-64 53.5t-23.5 76q0 54 28 85t92 44t173 13h45v-54h-45q-81 0 -127.5 -7t-65 -25t-18.5 -51q0 -41 29 -67t79 -26q41 0 72 19.5t48 54t17 78.5v108q0 62 -26.5 90t-82.5 28q-35 0 -70.5 -9t-74.5 -29q-13 -7 -23.5 -4.5t-16.5 10.5t-6.5 18.5
t4.5 20.5t18 16q43 22 86.5 32t83.5 10q73 0 115 -30t56 -91h-23q25 59 76.5 90t115.5 32q48 0 86 -16.5t65 -47t41 -74.5t14 -100v-3q0 -14 -8.5 -20.5t-25.5 -6.5h-334v54h314l-15 -13q0 52 -16 89t-46.5 57t-75.5 20q-46 0 -80.5 -22t-53 -62.5t-18.5 -97.5v-7
q0 -92 42 -141t124 -49q31 0 65.5 9t66.5 30q13 9 24.5 8.5t19 -7t10 -16t-2.5 -20.5t-17 -19q-33 -24 -77 -37t-88 -13q-85 0 -143.5 39t-79.5 115h20q-14 -71 -64 -112.5t-126 -41.5z" />
    <glyph glyph-name="ccedilla" unicode="&#xe7;" horiz-adv-x="463" 
d="M282 -9q-73 0 -126 32t-81.5 89.5t-28.5 133.5q0 58 16 104t47 78.5t74.5 49.5t98.5 17q36 0 75 -11t71 -38q10 -7 13 -17t0 -19.5t-10 -16t-17.5 -7.5t-21.5 7q-26 20 -53 28t-52 8q-39 0 -68 -12.5t-49 -35.5t-30.5 -57t-10.5 -79q0 -87 41 -137.5t117 -50.5
q25 0 51.5 8t53.5 28q11 8 21 7t17 -7.5t9.5 -16.5t-0.5 -19.5t-13 -16.5q-32 -26 -70 -37.5t-74 -11.5zM281 -192q-18 0 -37.5 2.5t-35.5 9.5q-11 4 -15 13t-1 18t11 13.5t20 -0.5t25.5 -7t30.5 -2q26 0 42 9.5t16 27.5q0 13 -9 20.5t-29 7.5q-8 0 -15.5 -1t-17.5 -3
q-9 -3 -14 -3t-10 3q-4 4 -4.5 9.5t0.5 15.5l12 79h51l-13 -75l-24 6q12 3 23.5 5t21.5 2q36 0 60 -18t24 -50q0 -37 -31 -59.5t-81 -22.5z" />
    <glyph glyph-name="egrave" unicode="&#xe8;" horiz-adv-x="532" 
d="M295 -9q-77 0 -132.5 30.5t-86 86.5t-30.5 134q0 76 30 132.5t82.5 88.5t121.5 32q49 0 88 -16.5t66.5 -47.5t42 -75t14.5 -99q0 -16 -9 -23.5t-26 -7.5h-348v53h329l-16 -13q0 54 -16 91.5t-46.5 57.5t-76.5 20q-51 0 -86.5 -23.5t-53.5 -65t-18 -96.5v-6
q0 -92 44.5 -140t126.5 -48q34 0 67.5 9t65.5 30q14 9 25.5 8.5t18.5 -7t9.5 -16t-2 -20.5t-17.5 -19q-33 -24 -78 -37t-89 -13zM248 556l-101 156q-8 12 -6 23t10 19t19 10.5t22 -1.5t18 -18l84 -163q6 -12 2.5 -21t-13 -13.5t-19 -3t-16.5 11.5z" />
    <glyph glyph-name="eacute" unicode="&#xe9;" horiz-adv-x="532" 
d="M295 -9q-77 0 -132.5 30.5t-86 86.5t-30.5 134q0 76 30 132.5t82.5 88.5t121.5 32q49 0 88 -16.5t66.5 -47.5t42 -75t14.5 -99q0 -16 -9 -23.5t-26 -7.5h-348v53h329l-16 -13q0 54 -16 91.5t-46.5 57.5t-76.5 20q-51 0 -86.5 -23.5t-53.5 -65t-18 -96.5v-6
q0 -92 44.5 -140t126.5 -48q34 0 67.5 9t65.5 30q14 9 25.5 8.5t18.5 -7t9.5 -16t-2 -20.5t-17.5 -19q-33 -24 -78 -37t-89 -13zM313 556q-7 -10 -17 -11.5t-19 3t-13 13.5t2 21l84 163q7 14 18 18t22.5 1.5t19.5 -10.5t9.5 -19t-6.5 -23z" />
    <glyph glyph-name="ecircumflex" unicode="&#xea;" horiz-adv-x="532" 
d="M295 -9q-77 0 -132.5 30.5t-86 86.5t-30.5 134q0 76 30 132.5t82.5 88.5t121.5 32q49 0 88 -16.5t66.5 -47.5t42 -75t14.5 -99q0 -16 -9 -23.5t-26 -7.5h-348v53h329l-16 -13q0 54 -16 91.5t-46.5 57.5t-76.5 20q-51 0 -86.5 -23.5t-53.5 -65t-18 -96.5v-6
q0 -92 44.5 -140t126.5 -48q34 0 67.5 9t65.5 30q14 9 25.5 8.5t18.5 -7t9.5 -16t-2 -20.5t-17.5 -19q-33 -24 -78 -37t-89 -13zM412 582q6 -12 2.5 -21.5t-12 -13.5t-18 -2.5t-15.5 11.5l-89 143l-89 -143q-6 -10 -15.5 -11.5t-18 2.5t-12 13.5t2.5 21.5l83 152q9 16 21 24
t28 8t28 -8t21 -24z" />
    <glyph glyph-name="edieresis" unicode="&#xeb;" horiz-adv-x="532" 
d="M295 -9q-77 0 -132.5 30.5t-86 86.5t-30.5 134q0 76 30 132.5t82.5 88.5t121.5 32q49 0 88 -16.5t66.5 -47.5t42 -75t14.5 -99q0 -16 -9 -23.5t-26 -7.5h-348v53h329l-16 -13q0 54 -16 91.5t-46.5 57.5t-76.5 20q-51 0 -86.5 -23.5t-53.5 -65t-18 -96.5v-6
q0 -92 44.5 -140t126.5 -48q34 0 67.5 9t65.5 30q14 9 25.5 8.5t18.5 -7t9.5 -16t-2 -20.5t-17.5 -19q-33 -24 -78 -37t-89 -13zM368 606q-23 0 -35.5 12t-12.5 34t12.5 34.5t35.5 12.5q22 0 34 -12.5t12 -34.5t-12 -34t-34 -12zM193 606q-22 0 -34.5 12t-12.5 34t12.5 34.5
t34.5 12.5q23 0 35 -12.5t12 -34.5t-12 -34t-35 -12z" />
    <glyph glyph-name="igrave" unicode="&#xec;" horiz-adv-x="232" 
d="M116 -5q-20 0 -30 11.5t-10 32.5v409q0 21 10 32t30 11q19 0 30 -11t11 -32v-409q0 -21 -10.5 -32.5t-30.5 -11.5zM84 556l-101 156q-8 12 -6 23t10 19t19 10.5t22 -1.5t18 -18l84 -163q6 -12 2.5 -21t-13 -13.5t-19 -3t-16.5 11.5z" />
    <glyph glyph-name="iacute" unicode="&#xed;" horiz-adv-x="232" 
d="M116 -5q-20 0 -30 11.5t-10 32.5v409q0 21 10 32t30 11q19 0 30 -11t11 -32v-409q0 -21 -10.5 -32.5t-30.5 -11.5zM149 556q-7 -10 -17 -11.5t-19 3t-13 13.5t2 21l84 163q7 14 18 18t22.5 1.5t19.5 -10.5t9.5 -19t-6.5 -23z" />
    <glyph glyph-name="icircumflex" unicode="&#xee;" horiz-adv-x="232" 
d="M116 -5q-20 0 -30 11.5t-10 32.5v409q0 21 10 32t30 11q19 0 30 -11t11 -32v-409q0 -21 -10.5 -32.5t-30.5 -11.5zM248 582q6 -12 2.5 -21.5t-12 -13.5t-18 -2.5t-15.5 11.5l-89 143l-89 -143q-6 -10 -15.5 -11.5t-18 2.5t-12 13.5t2.5 21.5l83 152q9 16 21 24t28 8
t28 -8t21 -24z" />
    <glyph glyph-name="idieresis" unicode="&#xef;" horiz-adv-x="232" 
d="M116 -5q-20 0 -30 11.5t-10 32.5v409q0 21 10 32t30 11q19 0 30 -11t11 -32v-409q0 -21 -10.5 -32.5t-30.5 -11.5zM204 606q-23 0 -35.5 12t-12.5 34t12.5 34.5t35.5 12.5q22 0 34 -12.5t12 -34.5t-12 -34t-34 -12zM29 606q-22 0 -34.5 12t-12.5 34t12.5 34.5t34.5 12.5
q23 0 35 -12.5t12 -34.5t-12 -34t-35 -12z" />
    <glyph glyph-name="eth" unicode="&#xf0;" horiz-adv-x="560" 
d="M276 -9q-69 0 -121 29t-80.5 81t-28.5 122q0 69 28.5 120.5t79.5 80t118 28.5q49 0 87 -16.5t63.5 -50t36.5 -85.5h-23q1 99 -39 173.5t-109 119.5h22l-151 -66q-16 -6 -27.5 -2t-16 14t0 21.5t21.5 18.5l111 48l2 -11q-20 10 -41 18.5t-44 15.5q-18 5 -24 16t-3 22
t14 17t29 1q40 -10 73.5 -25t64.5 -33l-23 1l124 54q15 6 26.5 2t16.5 -14t1 -21t-20 -18l-93 -41l3 12q53 -38 88 -89.5t53.5 -113.5t18.5 -136q0 -71 -15.5 -125.5t-46 -92t-74.5 -56.5t-102 -19zM277 57q47 0 81 20t51.5 57.5t17.5 88.5q0 76 -39.5 120t-110.5 44
q-45 0 -79 -20t-52 -56.5t-18 -87.5q0 -79 39.5 -122.5t109.5 -43.5z" />
    <glyph glyph-name="ntilde" unicode="&#xf1;" horiz-adv-x="568" 
d="M116 -7q-20 0 -30 11t-10 31v417q0 20 10 30.5t29 10.5t29.5 -10.5t10.5 -30.5v-86l-11 12q21 58 68.5 87.5t109.5 29.5q58 0 96.5 -21t57.5 -63.5t19 -107.5v-268q0 -20 -10.5 -31t-29.5 -11q-20 0 -30.5 11t-10.5 31v263q0 68 -26.5 99.5t-84.5 31.5
q-67 0 -106.5 -41.5t-39.5 -110.5v-242q0 -42 -41 -42zM128 587q-10 0 -16.5 7t-3.5 21q4 24 12 44t21 35t30.5 23.5t40.5 8.5q25 0 43.5 -11.5t35 -26t32.5 -26.5t34 -12q23 0 38.5 17.5t20.5 46.5q2 10 8.5 14.5t17.5 3.5q10 0 16.5 -7t3.5 -21q-5 -31 -18.5 -56
t-34.5 -40t-51 -15q-25 0 -43.5 11.5t-35 26.5t-32.5 26.5t-34 11.5q-23 0 -38 -17t-21 -47q-2 -9 -8.5 -14t-17.5 -4z" />
    <glyph glyph-name="ograve" unicode="&#xf2;" horiz-adv-x="556" 
d="M278 -9q-71 0 -123 31t-80.5 87.5t-28.5 133.5q0 58 16 104.5t47 79.5t73.5 50.5t95.5 17.5q71 0 123 -31t80.5 -87.5t28.5 -133.5q0 -58 -16 -104t-47 -79.5t-73.5 -51t-95.5 -17.5zM278 56q45 0 79 22t52.5 64t18.5 101q0 91 -40.5 139t-109.5 48q-46 0 -79.5 -21.5
t-52 -63t-18.5 -102.5q0 -90 41 -138.5t109 -48.5zM246 556l-101 156q-8 12 -6 23t10 19t19 10.5t22 -1.5t18 -18l84 -163q6 -12 2.5 -21t-13 -13.5t-19 -3t-16.5 11.5z" />
    <glyph glyph-name="oacute" unicode="&#xf3;" horiz-adv-x="556" 
d="M278 -9q-71 0 -123 31t-80.5 87.5t-28.5 133.5q0 58 16 104.5t47 79.5t73.5 50.5t95.5 17.5q71 0 123 -31t80.5 -87.5t28.5 -133.5q0 -58 -16 -104t-47 -79.5t-73.5 -51t-95.5 -17.5zM278 56q45 0 79 22t52.5 64t18.5 101q0 91 -40.5 139t-109.5 48q-46 0 -79.5 -21.5
t-52 -63t-18.5 -102.5q0 -90 41 -138.5t109 -48.5zM311 556q-7 -10 -17 -11.5t-19 3t-13 13.5t2 21l84 163q7 14 18 18t22.5 1.5t19.5 -10.5t9.5 -19t-6.5 -23z" />
    <glyph glyph-name="ocircumflex" unicode="&#xf4;" horiz-adv-x="556" 
d="M278 -9q-71 0 -123 31t-80.5 87.5t-28.5 133.5q0 58 16 104.5t47 79.5t73.5 50.5t95.5 17.5q71 0 123 -31t80.5 -87.5t28.5 -133.5q0 -58 -16 -104t-47 -79.5t-73.5 -51t-95.5 -17.5zM278 56q45 0 79 22t52.5 64t18.5 101q0 91 -40.5 139t-109.5 48q-46 0 -79.5 -21.5
t-52 -63t-18.5 -102.5q0 -90 41 -138.5t109 -48.5zM410 582q6 -12 2.5 -21.5t-12 -13.5t-18 -2.5t-15.5 11.5l-89 143l-89 -143q-6 -10 -15.5 -11.5t-18 2.5t-12 13.5t2.5 21.5l83 152q9 16 21 24t28 8t28 -8t21 -24z" />
    <glyph glyph-name="otilde" unicode="&#xf5;" horiz-adv-x="556" 
d="M278 -9q-71 0 -123 31t-80.5 87.5t-28.5 133.5q0 58 16 104.5t47 79.5t73.5 50.5t95.5 17.5q71 0 123 -31t80.5 -87.5t28.5 -133.5q0 -58 -16 -104t-47 -79.5t-73.5 -51t-95.5 -17.5zM278 56q45 0 79 22t52.5 64t18.5 101q0 91 -40.5 139t-109.5 48q-46 0 -79.5 -21.5
t-52 -63t-18.5 -102.5q0 -90 41 -138.5t109 -48.5zM121 587q-10 0 -16.5 7t-3.5 21q4 24 12 44t21 35t30.5 23.5t40.5 8.5q25 0 43.5 -11.5t35 -26t32.5 -26.5t34 -12q23 0 38.5 17.5t20.5 46.5q2 10 8.5 14.5t17.5 3.5q10 0 16.5 -7t3.5 -21q-5 -31 -18.5 -56t-34.5 -40
t-51 -15q-25 0 -43.5 11.5t-35 26.5t-32.5 26.5t-34 11.5q-23 0 -38 -17t-21 -47q-2 -9 -8.5 -14t-17.5 -4z" />
    <glyph glyph-name="odieresis" unicode="&#xf6;" horiz-adv-x="556" 
d="M278 -9q-71 0 -123 31t-80.5 87.5t-28.5 133.5q0 58 16 104.5t47 79.5t73.5 50.5t95.5 17.5q71 0 123 -31t80.5 -87.5t28.5 -133.5q0 -58 -16 -104t-47 -79.5t-73.5 -51t-95.5 -17.5zM278 56q45 0 79 22t52.5 64t18.5 101q0 91 -40.5 139t-109.5 48q-46 0 -79.5 -21.5
t-52 -63t-18.5 -102.5q0 -90 41 -138.5t109 -48.5zM366 606q-23 0 -35.5 12t-12.5 34t12.5 34.5t35.5 12.5q22 0 34 -12.5t12 -34.5t-12 -34t-34 -12zM191 606q-22 0 -34.5 12t-12.5 34t12.5 34.5t34.5 12.5q23 0 35 -12.5t12 -34.5t-12 -34t-35 -12z" />
    <glyph glyph-name="divide" unicode="&#xf7;" horiz-adv-x="600" 
d="M81 256q-15 0 -23.5 8t-8.5 23t8.5 23t23.5 8h438q15 0 23.5 -8t8.5 -23t-8.5 -23t-23.5 -8h-438zM294 43q-21 0 -32.5 12t-11.5 33t11.5 32.5t32.5 11.5t32.5 -11t11.5 -33q0 -21 -11 -33t-33 -12zM294 441q-21 0 -32.5 12t-11.5 33t11.5 32.5t32.5 11.5t32.5 -11.5
t11.5 -32.5t-11 -33t-33 -12z" />
    <glyph glyph-name="oslash" unicode="&#xf8;" horiz-adv-x="556" 
d="M278 -9q-71 0 -123 31t-80.5 87.5t-28.5 133.5q0 58 16 104.5t47 79.5t73.5 50.5t95.5 17.5q71 0 123 -31t80.5 -87.5t28.5 -133.5q0 -58 -16 -104t-47 -79.5t-73.5 -51t-95.5 -17.5zM278 56q45 0 79 22t52.5 64t18.5 101q0 91 -40.5 139t-109.5 48q-46 0 -79.5 -21.5
t-52 -63t-18.5 -102.5q0 -90 41 -138.5t109 -48.5zM152 -30q-7 -12 -18 -14t-20.5 3.5t-13 16.5t4.5 25l299 516q8 12 19 13.5t20 -4t13 -16.5t-4 -24z" />
    <glyph glyph-name="ugrave" unicode="&#xf9;" horiz-adv-x="561" 
d="M248 -9q-59 0 -97.5 21.5t-58 64.5t-19.5 107v268q0 21 10.5 31t29.5 10q20 0 30.5 -10t10.5 -31v-267q0 -64 26.5 -95.5t83.5 -31.5q62 0 101 42t39 110v242q0 21 10.5 31t30.5 10q19 0 29.5 -10t10.5 -31v-417q0 -42 -39 -42q-19 0 -29.5 11t-10.5 31v91l13 -14
q-20 -59 -65.5 -90t-105.5 -31zM249 557l-101 156q-8 12 -6 23t10 19t19 10.5t22 -1.5t18 -18l84 -163q6 -12 2.5 -21t-13 -13.5t-19 -3t-16.5 11.5z" />
    <glyph glyph-name="uacute" unicode="&#xfa;" horiz-adv-x="561" 
d="M248 -9q-59 0 -97.5 21.5t-58 64.5t-19.5 107v268q0 21 10.5 31t29.5 10q20 0 30.5 -10t10.5 -31v-267q0 -64 26.5 -95.5t83.5 -31.5q62 0 101 42t39 110v242q0 21 10.5 31t30.5 10q19 0 29.5 -10t10.5 -31v-417q0 -42 -39 -42q-19 0 -29.5 11t-10.5 31v91l13 -14
q-20 -59 -65.5 -90t-105.5 -31zM314 557q-7 -10 -17 -11.5t-19 3t-13 13.5t2 21l84 163q7 14 18 18t22.5 1.5t19.5 -10.5t9.5 -19t-6.5 -23z" />
    <glyph glyph-name="ucircumflex" unicode="&#xfb;" horiz-adv-x="561" 
d="M248 -9q-59 0 -97.5 21.5t-58 64.5t-19.5 107v268q0 21 10.5 31t29.5 10q20 0 30.5 -10t10.5 -31v-267q0 -64 26.5 -95.5t83.5 -31.5q62 0 101 42t39 110v242q0 21 10.5 31t30.5 10q19 0 29.5 -10t10.5 -31v-417q0 -42 -39 -42q-19 0 -29.5 11t-10.5 31v91l13 -14
q-20 -59 -65.5 -90t-105.5 -31zM413 583q6 -12 2.5 -21.5t-12 -13.5t-18 -2.5t-15.5 11.5l-89 143l-89 -143q-6 -10 -15.5 -11.5t-18 2.5t-12 13.5t2.5 21.5l83 152q9 16 21 24t28 8t28 -8t21 -24z" />
    <glyph glyph-name="udieresis" unicode="&#xfc;" horiz-adv-x="561" 
d="M248 -9q-59 0 -97.5 21.5t-58 64.5t-19.5 107v268q0 21 10.5 31t29.5 10q20 0 30.5 -10t10.5 -31v-267q0 -64 26.5 -95.5t83.5 -31.5q62 0 101 42t39 110v242q0 21 10.5 31t30.5 10q19 0 29.5 -10t10.5 -31v-417q0 -42 -39 -42q-19 0 -29.5 11t-10.5 31v91l13 -14
q-20 -59 -65.5 -90t-105.5 -31zM369 607q-23 0 -35.5 12t-12.5 34t12.5 34.5t35.5 12.5q22 0 34 -12.5t12 -34.5t-12 -34t-34 -12zM194 607q-22 0 -34.5 12t-12.5 34t12.5 34.5t34.5 12.5q23 0 35 -12.5t12 -34.5t-12 -34t-35 -12z" />
    <glyph glyph-name="yacute" unicode="&#xfd;" horiz-adv-x="514" 
d="M184 -187q-15 0 -24 8t-10.5 21.5t4.5 27.5l69 155v-35l-192 446q-6 15 -4 28t12 21t28 8q16 0 25 -7t16 -25l164 -402h-27l166 402q8 18 17 25t26 7q16 0 24.5 -8t10 -20.5t-4.5 -27.5l-256 -592q-8 -18 -17.5 -25t-26.5 -7zM291 556q-7 -10 -17 -11.5t-19 3t-13 13.5
t2 21l84 163q7 14 18 18t22.5 1.5t19.5 -10.5t9.5 -19t-6.5 -23z" />
    <glyph glyph-name="thorn" unicode="&#xfe;" horiz-adv-x="583" 
d="M116 -187q-20 0 -30 10.5t-10 30.5v817q0 20 10.5 30.5t29.5 10.5t30 -10.5t11 -30.5v-300h-12q16 57 63.5 90.5t113.5 33.5q65 0 113.5 -30.5t75 -87t26.5 -134.5q0 -77 -26.5 -133.5t-74.5 -87.5t-114 -31t-113 33.5t-64 89.5h12v-260q0 -20 -11 -30.5t-30 -10.5z
M305 56q46 0 79.5 22t52 64t18.5 101q0 91 -40.5 139t-109.5 48q-45 0 -79 -21.5t-52.5 -63t-18.5 -102.5q0 -90 41 -138.5t109 -48.5z" />
    <glyph glyph-name="ydieresis" unicode="&#xff;" horiz-adv-x="514" 
d="M184 -187q-15 0 -24 8t-10.5 21.5t4.5 27.5l69 155v-35l-192 446q-6 15 -4 28t12 21t28 8q16 0 25 -7t16 -25l164 -402h-27l166 402q8 18 17 25t26 7q16 0 24.5 -8t10 -20.5t-4.5 -27.5l-256 -592q-8 -18 -17.5 -25t-26.5 -7zM346 606q-23 0 -35.5 12t-12.5 34t12.5 34.5
t35.5 12.5q22 0 34 -12.5t12 -34.5t-12 -34t-34 -12zM171 606q-22 0 -34.5 12t-12.5 34t12.5 34.5t34.5 12.5q23 0 35 -12.5t12 -34.5t-12 -34t-35 -12z" />
    <glyph glyph-name="Amacron" unicode="&#x100;" horiz-adv-x="729" 
d="M72 -7q-16 0 -25.5 7.5t-11 20t5.5 28.5l275 626q9 20 21.5 28.5t27.5 8.5t27.5 -8.5t20.5 -28.5l276 -626q8 -16 6.5 -29t-10.5 -20t-25 -7q-18 0 -29 9.5t-18 27.5l-74 171l40 -21h-430l41 21l-73 -171q-9 -19 -19 -28t-26 -9zM364 609l-161 -379l-24 19h370l-22 -19
l-161 379h-2zM230 814q-29 0 -29 28q0 13 7.5 20t21.5 7h272q30 0 30 -27q0 -13 -7.5 -20.5t-22.5 -7.5h-272z" />
    <glyph glyph-name="amacron" unicode="&#x101;" horiz-adv-x="530" 
d="M229 -9q-50 0 -89.5 19.5t-62.5 53.5t-23 76q0 54 27.5 85t91 44t173.5 13h45v-53h-44q-81 0 -127.5 -7.5t-65 -25.5t-18.5 -51q0 -41 28.5 -67t77.5 -26q40 0 70.5 19t48 52t17.5 76v114q0 62 -25 89.5t-82 27.5q-35 0 -70 -9t-74 -29q-14 -7 -24 -4.5t-16 10.5t-7 18.5
t4.5 20.5t17.5 16q44 22 87 32t82 10q63 0 104 -20.5t61 -62t20 -106.5v-271q0 -20 -9.5 -31t-27.5 -11q-19 0 -29 11t-10 31v78h9q-8 -38 -30.5 -65t-55.5 -42t-74 -15zM151 625q-29 0 -29 27q0 14 7.5 21t21.5 7h242q30 0 30 -28q0 -12 -7.5 -19.5t-22.5 -7.5h-242z" />
    <glyph glyph-name="Abreve" unicode="&#x102;" horiz-adv-x="729" 
d="M72 -7q-16 0 -25.5 7.5t-11 20t5.5 28.5l275 626q9 20 21.5 28.5t27.5 8.5t27.5 -8.5t20.5 -28.5l276 -626q8 -16 6.5 -29t-10.5 -20t-25 -7q-18 0 -29 9.5t-18 27.5l-74 171l40 -21h-430l41 21l-73 -171q-9 -19 -19 -28t-26 -9zM364 609l-161 -379l-24 19h370l-22 -19
l-161 379h-2zM366 760q-59 0 -104.5 35.5t-61.5 108.5q-3 14 4 23t18 9q8 1 14.5 -2t10 -8t4.5 -12q11 -55 44 -77.5t71 -22.5q39 0 72 22.5t43 77.5q1 7 4.5 12t10 8t14.5 2q11 0 18 -9t4 -23q-15 -73 -61 -108.5t-105 -35.5z" />
    <glyph glyph-name="abreve" unicode="&#x103;" horiz-adv-x="530" 
d="M229 -9q-50 0 -89.5 19.5t-62.5 53.5t-23 76q0 54 27.5 85t91 44t173.5 13h45v-53h-44q-81 0 -127.5 -7.5t-65 -25.5t-18.5 -51q0 -41 28.5 -67t77.5 -26q40 0 70.5 19t48 52t17.5 76v114q0 62 -25 89.5t-82 27.5q-35 0 -70 -9t-74 -29q-14 -7 -24 -4.5t-16 10.5t-7 18.5
t4.5 20.5t17.5 16q44 22 87 32t82 10q63 0 104 -20.5t61 -62t20 -106.5v-271q0 -20 -9.5 -31t-27.5 -11q-19 0 -29 11t-10 31v78h9q-8 -38 -30.5 -65t-55.5 -42t-74 -15zM272 549q-43 0 -75 20t-51.5 57.5t-25.5 87.5q-2 14 5 23t19 9q11 1 18 -6t9 -20q8 -58 34.5 -87
t66.5 -29t67.5 29t33.5 87q2 13 9.5 20t17.5 6q12 0 19 -9t5 -23q-5 -50 -25 -87.5t-52 -57.5t-75 -20z" />
    <glyph glyph-name="Aogonek" unicode="&#x104;" horiz-adv-x="729" 
d="M673 -192q-47 0 -76 26t-29 71q0 32 16.5 61t44.5 51l2 -13q-6 4 -10 10.5t-8 15.5l-74 171l40 -21h-430l41 21l-73 -171q-9 -19 -19 -28t-26 -9t-25.5 7.5t-11 20t4.5 28.5l276 626q9 20 21.5 28.5t27.5 8.5t27.5 -8.5t20.5 -28.5l276 -626q8 -17 6 -31t-14 -20
q-10 -6 -23 -18t-22.5 -28.5t-9.5 -37.5q0 -28 17 -42t41 -14q9 0 17.5 1.5t17.5 4.5q14 4 21.5 -1t9.5 -14.5t-2.5 -18.5t-15.5 -13q-15 -6 -30 -7.5t-29 -1.5zM364 609l-161 -379l-24 19h370l-22 -19l-161 379h-2z" />
    <glyph glyph-name="aogonek" unicode="&#x105;" horiz-adv-x="530" 
d="M421 -192q-48 0 -76.5 26t-28.5 71q0 36 21 68.5t58 53.5l-7 -20q-5 6 -6.5 13t-1.5 16v77h9q-8 -38 -30.5 -65t-55.5 -42t-74 -15q-50 0 -89.5 19.5t-62.5 53.5t-23 76q0 54 27.5 85t91 44t173.5 13h45v-53h-44q-81 0 -127.5 -7.5t-65 -25.5t-18.5 -51q0 -41 28.5 -67
t77.5 -26q40 0 70.5 19t48 52t17.5 76v114q0 62 -25 89.5t-82 27.5q-35 0 -70 -9t-74 -29q-14 -7 -24 -4.5t-16 10.5t-7 18.5t4.5 20.5t17.5 16q44 22 87 32t82 10q63 0 104 -20.5t61 -62t20 -106.5v-271q0 -17 -6.5 -26.5t-18.5 -14.5q-22 -12 -39.5 -32t-17.5 -48
t16.5 -42t41.5 -14q9 0 17.5 1.5t16.5 4.5q14 4 21.5 -1t9.5 -14.5t-2 -18.5t-15 -13q-15 -6 -30 -7.5t-29 -1.5z" />
    <glyph glyph-name="Cacute" unicode="&#x106;" horiz-adv-x="673" 
d="M392 -9q-104 0 -178 44t-113.5 125t-39.5 193q0 84 22.5 150.5t65 113t104.5 72t139 25.5q62 0 118 -17.5t97 -51.5q13 -10 17.5 -22.5t1 -24t-12 -19t-20.5 -7.5t-27 10q-36 29 -79 43t-93 14q-79 0 -134 -33.5t-83 -97.5t-28 -155t28 -155.5t83 -98t134 -33.5
q49 0 93 14.5t81 43.5q15 10 27 9.5t20 -7.5t11.5 -18t0 -23t-15.5 -21q-42 -36 -98.5 -54.5t-120.5 -18.5zM422 769q-8 -9 -18.5 -9.5t-18.5 5t-10.5 14.5t4.5 20l89 129q9 13 20 16t22 -0.5t17.5 -11.5t7 -18.5t-8.5 -21.5z" />
    <glyph glyph-name="cacute" unicode="&#x107;" horiz-adv-x="463" 
d="M282 -9q-73 0 -126 32t-81.5 89.5t-28.5 133.5q0 58 16 104t47 78.5t74.5 49.5t98.5 17q36 0 75 -11t71 -38q10 -7 13 -17t0 -19.5t-10 -16t-17.5 -7.5t-21.5 7q-26 20 -53 28t-52 8q-39 0 -68 -12.5t-49 -35.5t-30.5 -57t-10.5 -79q0 -87 41 -137.5t117 -50.5
q25 0 51.5 8t53.5 28q11 8 21 7t17 -7.5t9.5 -16.5t-0.5 -19.5t-13 -16.5q-32 -26 -70 -37.5t-74 -11.5zM311 556q-7 -10 -17 -11.5t-19 3t-13 13.5t2 21l84 163q7 14 18 18t22.5 1.5t19.5 -10.5t9.5 -19t-6.5 -23z" />
    <glyph glyph-name="Ccircumflex" unicode="&#x108;" horiz-adv-x="673" 
d="M392 -9q-104 0 -178 44t-113.5 125t-39.5 193q0 84 22.5 150.5t65 113t104.5 72t139 25.5q62 0 118 -17.5t97 -51.5q13 -10 17.5 -22.5t1 -24t-12 -19t-20.5 -7.5t-27 10q-36 29 -79 43t-93 14q-79 0 -134 -33.5t-83 -97.5t-28 -155t28 -155.5t83 -98t134 -33.5
q49 0 93 14.5t81 43.5q15 10 27 9.5t20 -7.5t11.5 -18t0 -23t-15.5 -21q-42 -36 -98.5 -54.5t-120.5 -18.5zM291 768q-9 -9 -19.5 -10t-18.5 4t-10 14t5 19l88 123q10 15 23 21.5t28 6.5q16 0 28.5 -6.5t23.5 -21.5l87 -123q8 -10 6 -19t-10.5 -14t-19 -4t-18.5 10l-97 116z
" />
    <glyph glyph-name="ccircumflex" unicode="&#x109;" horiz-adv-x="463" 
d="M282 -9q-73 0 -126 32t-81.5 89.5t-28.5 133.5q0 58 16 104t47 78.5t74.5 49.5t98.5 17q36 0 75 -11t71 -38q10 -7 13 -17t0 -19.5t-10 -16t-17.5 -7.5t-21.5 7q-26 20 -53 28t-52 8q-39 0 -68 -12.5t-49 -35.5t-30.5 -57t-10.5 -79q0 -87 41 -137.5t117 -50.5
q25 0 51.5 8t53.5 28q11 8 21 7t17 -7.5t9.5 -16.5t-0.5 -19.5t-13 -16.5q-32 -26 -70 -37.5t-74 -11.5zM410 582q6 -12 2.5 -21.5t-12 -13.5t-18 -2.5t-15.5 11.5l-89 143l-89 -143q-6 -10 -15.5 -11.5t-18 2.5t-12 13.5t2.5 21.5l83 152q9 16 21 24t28 8t28 -8t21 -24z
" />
    <glyph glyph-name="Cdotaccent" unicode="&#x10a;" horiz-adv-x="673" 
d="M392 -9q-104 0 -178 44t-113.5 125t-39.5 193q0 84 22.5 150.5t65 113t104.5 72t139 25.5q62 0 118 -17.5t97 -51.5q13 -10 17.5 -22.5t1 -24t-12 -19t-20.5 -7.5t-27 10q-36 29 -79 43t-93 14q-79 0 -134 -33.5t-83 -97.5t-28 -155t28 -155.5t83 -98t134 -33.5
q49 0 93 14.5t81 43.5q15 10 27 9.5t20 -7.5t11.5 -18t0 -23t-15.5 -21q-42 -36 -98.5 -54.5t-120.5 -18.5zM387 803q-23 0 -36 12.5t-13 35.5t13 35t36 12q24 0 36.5 -12t12.5 -35t-12.5 -35.5t-36.5 -12.5z" />
    <glyph glyph-name="cdotaccent" unicode="&#x10b;" horiz-adv-x="463" 
d="M282 -9q-73 0 -126 32t-81.5 89.5t-28.5 133.5q0 58 16 104t47 78.5t74.5 49.5t98.5 17q36 0 75 -11t71 -38q10 -7 13 -17t0 -19.5t-10 -16t-17.5 -7.5t-21.5 7q-26 20 -53 28t-52 8q-39 0 -68 -12.5t-49 -35.5t-30.5 -57t-10.5 -79q0 -87 41 -137.5t117 -50.5
q25 0 51.5 8t53.5 28q11 8 21 7t17 -7.5t9.5 -16.5t-0.5 -19.5t-13 -16.5q-32 -26 -70 -37.5t-74 -11.5zM278 605q-23 0 -36 13t-13 35q0 23 13 35.5t36 12.5q24 0 37 -12.5t13 -35.5t-13 -35.5t-37 -12.5z" />
    <glyph glyph-name="Ccaron" unicode="&#x10c;" horiz-adv-x="673" 
d="M392 -9q-104 0 -178 44t-113.5 125t-39.5 193q0 84 22.5 150.5t65 113t104.5 72t139 25.5q62 0 118 -17.5t97 -51.5q13 -10 17.5 -22.5t1 -24t-12 -19t-20.5 -7.5t-27 10q-36 29 -79 43t-93 14q-79 0 -134 -33.5t-83 -97.5t-28 -155t28 -155.5t83 -98t134 -33.5
q49 0 93 14.5t81 43.5q15 10 27 9.5t20 -7.5t11.5 -18t0 -23t-15.5 -21q-42 -36 -98.5 -54.5t-120.5 -18.5zM387 756q-15 0 -28 6.5t-23 20.5l-88 124q-7 10 -5 19.5t10 14.5t18.5 3.5t19.5 -11.5l96 -115l97 115q8 10 18.5 11.5t18.5 -3.5t10 -14.5t-5 -19.5l-87 -124
q-11 -14 -23.5 -20.5t-28.5 -6.5z" />
    <glyph glyph-name="ccaron" unicode="&#x10d;" horiz-adv-x="463" 
d="M282 -9q-73 0 -126 32t-81.5 89.5t-28.5 133.5q0 58 16 104t47 78.5t74.5 49.5t98.5 17q36 0 75 -11t71 -38q10 -7 13 -17t0 -19.5t-10 -16t-17.5 -7.5t-21.5 7q-26 20 -53 28t-52 8q-39 0 -68 -12.5t-49 -35.5t-30.5 -57t-10.5 -79q0 -87 41 -137.5t117 -50.5
q25 0 51.5 8t53.5 28q11 8 21 7t17 -7.5t9.5 -16.5t-0.5 -19.5t-13 -16.5q-32 -26 -70 -37.5t-74 -11.5zM278 538q-16 0 -28 8.5t-21 24.5l-83 151q-6 12 -2.5 21.5t12 14t18 2.5t15.5 -12l89 -143l89 143q6 10 15.5 12t18 -2.5t12 -14t-2.5 -21.5l-83 -151
q-9 -16 -21 -24.5t-28 -8.5z" />
    <glyph glyph-name="Dcaron" unicode="&#x10e;" horiz-adv-x="742" 
d="M132 0q-22 0 -33.5 11.5t-11.5 33.5v615q0 22 11.5 33.5t33.5 11.5h193q171 0 264 -90t93 -262q0 -86 -23.5 -151.5t-69.5 -110.5t-112 -68t-152 -23h-193zM169 70h150q70 0 121.5 18t86 53t51.5 88.5t17 123.5q0 141 -69 211.5t-207 70.5h-150v-565zM370 756
q-15 0 -28 6.5t-23 20.5l-88 124q-7 10 -5 19.5t10 14.5t18.5 3.5t19.5 -11.5l96 -115l97 115q8 10 18.5 11.5t18.5 -3.5t10 -14.5t-5 -19.5l-87 -124q-11 -14 -23.5 -20.5t-28.5 -6.5z" />
    <glyph glyph-name="dcaron" unicode="&#x10f;" horiz-adv-x="583" 
d="M261 -9q-65 0 -113.5 31t-75 87.5t-26.5 133.5q0 78 26.5 134.5t75 87t113.5 30.5q66 0 113 -33t63 -89h-11v298q0 20 10.5 30.5t30.5 10.5q19 0 29.5 -10.5t10.5 -30.5v-636q0 -20 -10 -31t-30 -11q-19 0 -29.5 11t-10.5 31v95l11 -14q-16 -57 -63.5 -91t-113.5 -34z
M278 56q45 0 79 22t52.5 64t18.5 101q0 91 -40.5 139t-109.5 48q-46 0 -79.5 -21.5t-52 -63t-18.5 -102.5q0 -90 41 -138.5t109 -48.5zM574 510q-9 0 -15 5.5t-6 16.5v147q0 33 33 33q16 0 24 -9t5 -26l-18 -146q-4 -21 -23 -21z" />
    <glyph glyph-name="Dcroat" unicode="&#x110;" horiz-adv-x="742" 
d="M132 0q-22 0 -33.5 11.5t-11.5 33.5v615q0 22 11.5 33.5t33.5 11.5h193q171 0 264 -90t93 -262q0 -86 -23.5 -151.5t-69.5 -110.5t-112 -68t-152 -23h-193zM169 70h150q70 0 121.5 18t86 53t51.5 88.5t17 123.5q0 141 -69 211.5t-207 70.5h-150v-565zM25 326
q-16 0 -24.5 8.5t-8.5 23.5t8.5 23.5t24.5 8.5h315q16 0 24.5 -8t8.5 -24q0 -15 -8.5 -23.5t-24.5 -8.5h-315z" />
    <glyph glyph-name="dcroat" unicode="&#x111;" horiz-adv-x="583" 
d="M261 -9q-64 0 -112.5 31t-75.5 87.5t-27 133.5q0 78 26.5 134.5t75 87t113.5 30.5q66 0 113.5 -33t63.5 -89h-11v181h-164q-16 0 -25 8t-9 22t9 22t25 8h196l-32 -33v94q0 17 10.5 27t29.5 10q20 0 30.5 -10t10.5 -27v-94l-32 33h94q17 0 25.5 -8t8.5 -22t-8.5 -22
t-25.5 -8h-62v-519q0 -20 -10.5 -31t-29.5 -11q-20 0 -30.5 11t-10.5 31v94l11 -14q-16 -56 -63 -90t-114 -34zM278 56q46 0 80 22t52 64t18 101q0 91 -40.5 139t-109.5 48q-45 0 -79 -21.5t-52.5 -63t-18.5 -102.5q0 -90 41 -138.5t109 -48.5z" />
    <glyph glyph-name="Emacron" unicode="&#x112;" horiz-adv-x="583" 
d="M132 0q-22 0 -33.5 11.5t-11.5 33.5v615q0 22 11.5 33.5t33.5 11.5h372q17 0 26 -9t9 -25q0 -17 -9 -26t-26 -9h-337v-244h316q17 0 26 -8.5t9 -25.5t-9 -26t-26 -9h-316v-254h337q17 0 26 -9t9 -25q0 -17 -9 -26t-26 -9h-372zM188 814q-29 0 -29 28q0 13 7.5 20t21.5 7
h272q30 0 30 -27q0 -13 -7.5 -20.5t-22.5 -7.5h-272z" />
    <glyph glyph-name="emacron" unicode="&#x113;" horiz-adv-x="532" 
d="M295 -9q-77 0 -132.5 30.5t-86 86.5t-30.5 134q0 76 30 132.5t82.5 88.5t121.5 32q49 0 88 -16.5t66.5 -47.5t42 -75t14.5 -99q0 -16 -9 -23.5t-26 -7.5h-348v53h329l-16 -13q0 54 -16 91.5t-46.5 57.5t-76.5 20q-51 0 -86.5 -23.5t-53.5 -65t-18 -96.5v-6
q0 -92 44.5 -140t126.5 -48q34 0 67.5 9t65.5 30q14 9 25.5 8.5t18.5 -7t9.5 -16t-2 -20.5t-17.5 -19q-33 -24 -78 -37t-89 -13zM159 625q-29 0 -29 27q0 14 7.5 21t21.5 7h242q30 0 30 -28q0 -12 -7.5 -19.5t-22.5 -7.5h-242z" />
    <glyph glyph-name="Ebreve" unicode="&#x114;" horiz-adv-x="583" 
d="M132 0q-22 0 -33.5 11.5t-11.5 33.5v615q0 22 11.5 33.5t33.5 11.5h372q17 0 26 -9t9 -25q0 -17 -9 -26t-26 -9h-337v-244h316q17 0 26 -8.5t9 -25.5t-9 -26t-26 -9h-316v-254h337q17 0 26 -9t9 -25q0 -17 -9 -26t-26 -9h-372zM324 760q-59 0 -104.5 35.5t-61.5 108.5
q-3 14 4 23t18 9q8 1 14.5 -2t10 -8t4.5 -12q11 -55 44 -77.5t71 -22.5q39 0 72 22.5t43 77.5q1 7 4.5 12t10 8t14.5 2q11 0 18 -9t4 -23q-15 -73 -61 -108.5t-105 -35.5z" />
    <glyph glyph-name="ebreve" unicode="&#x115;" horiz-adv-x="532" 
d="M295 -9q-77 0 -132.5 30.5t-86 86.5t-30.5 134q0 76 30 132.5t82.5 88.5t121.5 32q49 0 88 -16.5t66.5 -47.5t42 -75t14.5 -99q0 -16 -9 -23.5t-26 -7.5h-348v53h329l-16 -13q0 54 -16 91.5t-46.5 57.5t-76.5 20q-51 0 -86.5 -23.5t-53.5 -65t-18 -96.5v-6
q0 -92 44.5 -140t126.5 -48q34 0 67.5 9t65.5 30q14 9 25.5 8.5t18.5 -7t9.5 -16t-2 -20.5t-17.5 -19q-33 -24 -78 -37t-89 -13zM280 549q-43 0 -75 20t-51.5 57.5t-25.5 87.5q-2 14 5 23t19 9q11 1 18 -6t9 -20q8 -58 34.5 -87t66.5 -29t67.5 29t33.5 87q2 13 9.5 20
t17.5 6q12 0 19 -9t5 -23q-5 -50 -25 -87.5t-52 -57.5t-75 -20z" />
    <glyph glyph-name="Edotaccent" unicode="&#x116;" horiz-adv-x="583" 
d="M132 0q-22 0 -33.5 11.5t-11.5 33.5v615q0 22 11.5 33.5t33.5 11.5h372q17 0 26 -9t9 -25q0 -17 -9 -26t-26 -9h-337v-244h316q17 0 26 -8.5t9 -25.5t-9 -26t-26 -9h-316v-254h337q17 0 26 -9t9 -25q0 -17 -9 -26t-26 -9h-372zM324 803q-23 0 -36 12.5t-13 35.5t13 35
t36 12q24 0 36.5 -12t12.5 -35t-12.5 -35.5t-36.5 -12.5z" />
    <glyph glyph-name="edotaccent" unicode="&#x117;" horiz-adv-x="532" 
d="M295 -9q-77 0 -132.5 30.5t-86 86.5t-30.5 134q0 76 30 132.5t82.5 88.5t121.5 32q49 0 88 -16.5t66.5 -47.5t42 -75t14.5 -99q0 -16 -9 -23.5t-26 -7.5h-348v53h329l-16 -13q0 54 -16 91.5t-46.5 57.5t-76.5 20q-51 0 -86.5 -23.5t-53.5 -65t-18 -96.5v-6
q0 -92 44.5 -140t126.5 -48q34 0 67.5 9t65.5 30q14 9 25.5 8.5t18.5 -7t9.5 -16t-2 -20.5t-17.5 -19q-33 -24 -78 -37t-89 -13zM280 605q-23 0 -36 13t-13 35q0 23 13 35.5t36 12.5q24 0 37 -12.5t13 -35.5t-13 -35.5t-37 -12.5z" />
    <glyph glyph-name="Eogonek" unicode="&#x118;" horiz-adv-x="583" 
d="M132 0q-22 0 -33.5 11.5t-11.5 33.5v615q0 22 11.5 33.5t33.5 11.5h372q17 0 26 -9t9 -25q0 -17 -9 -26t-26 -9h-337v-244h316q17 0 26 -8.5t9 -25.5t-9 -26t-26 -9h-316v-254h337q17 0 26 -9t9 -25q0 -17 -9 -26t-26 -9h-372zM475 -192q-47 0 -76 26t-29 71
q0 40 25.5 75.5t69.5 55.5l29 -36q-15 -6 -30.5 -18.5t-25.5 -29.5t-10 -38q0 -28 16.5 -42t41.5 -14q9 0 17.5 1.5t17.5 4.5q13 4 21 -1t9.5 -14.5t-2.5 -18.5t-15 -13q-15 -6 -30 -7.5t-29 -1.5z" />
    <glyph glyph-name="eogonek" unicode="&#x119;" horiz-adv-x="532" 
d="M295 -9q-77 0 -132.5 30.5t-86 86.5t-30.5 134q0 76 30 132.5t82.5 88.5t121.5 32q49 0 88 -16.5t66.5 -47.5t42 -75t14.5 -99q0 -16 -9 -23.5t-26 -7.5h-348v53h329l-16 -13q0 54 -16 91.5t-46.5 57.5t-76.5 20q-51 0 -86.5 -23.5t-53.5 -65t-18 -96.5v-6
q0 -92 44.5 -140t126.5 -48q34 0 67.5 9t65.5 30q14 9 25.5 8.5t18.5 -7t9.5 -16t-2 -20.5t-17.5 -19q-33 -24 -78 -37t-89 -13zM337 -192q-47 0 -76 26t-29 71q0 40 25.5 75.5t69.5 55.5l29 -36q-15 -6 -30.5 -18.5t-25.5 -29.5t-10 -38q0 -28 16.5 -42t41.5 -14
q9 0 17.5 1.5t17.5 4.5q13 4 21 -1t9.5 -14.5t-2.5 -18.5t-15 -13q-15 -6 -30 -7.5t-29 -1.5z" />
    <glyph glyph-name="Ecaron" unicode="&#x11a;" horiz-adv-x="583" 
d="M132 0q-22 0 -33.5 11.5t-11.5 33.5v615q0 22 11.5 33.5t33.5 11.5h372q17 0 26 -9t9 -25q0 -17 -9 -26t-26 -9h-337v-244h316q17 0 26 -8.5t9 -25.5t-9 -26t-26 -9h-316v-254h337q17 0 26 -9t9 -25q0 -17 -9 -26t-26 -9h-372zM324 756q-15 0 -28 6.5t-23 20.5l-88 124
q-7 10 -5 19.5t10 14.5t18.5 3.5t19.5 -11.5l96 -115l97 115q8 10 18.5 11.5t18.5 -3.5t10 -14.5t-5 -19.5l-87 -124q-11 -14 -23.5 -20.5t-28.5 -6.5z" />
    <glyph glyph-name="ecaron" unicode="&#x11b;" horiz-adv-x="532" 
d="M295 -9q-77 0 -132.5 30.5t-86 86.5t-30.5 134q0 76 30 132.5t82.5 88.5t121.5 32q49 0 88 -16.5t66.5 -47.5t42 -75t14.5 -99q0 -16 -9 -23.5t-26 -7.5h-348v53h329l-16 -13q0 54 -16 91.5t-46.5 57.5t-76.5 20q-51 0 -86.5 -23.5t-53.5 -65t-18 -96.5v-6
q0 -92 44.5 -140t126.5 -48q34 0 67.5 9t65.5 30q14 9 25.5 8.5t18.5 -7t9.5 -16t-2 -20.5t-17.5 -19q-33 -24 -78 -37t-89 -13zM280 538q-16 0 -28 8.5t-21 24.5l-83 151q-6 12 -2.5 21.5t12 14t18 2.5t15.5 -12l89 -143l89 143q6 10 15.5 12t18 -2.5t12 -14t-2.5 -21.5
l-83 -151q-9 -16 -21 -24.5t-28 -8.5z" />
    <glyph glyph-name="Gcircumflex" unicode="&#x11c;" horiz-adv-x="726" 
d="M409 -9q-113 0 -190.5 43t-117.5 124t-40 194q0 84 22.5 151t66 113.5t106 72t141.5 25.5q63 0 122 -17.5t105 -55.5q12 -9 15 -20t-0.5 -22t-11 -18.5t-19 -8.5t-23.5 7q-41 32 -87 46.5t-102 14.5q-80 0 -135.5 -34t-84 -98t-28.5 -156q0 -140 65.5 -214t197.5 -74
q48 0 94 9.5t87 26.5l-18 -47v249h-143q-18 0 -27 9t-9 24q0 16 9 24t27 8h179q17 0 26 -9t9 -26v-261q0 -15 -5 -25t-17 -15q-42 -17 -100.5 -28.5t-113.5 -11.5zM295 768q-9 -9 -19.5 -10t-18.5 4t-10 14t5 19l88 123q10 15 23 21.5t28 6.5q16 0 28.5 -6.5t23.5 -21.5
l87 -123q8 -10 6 -19t-10.5 -14t-19 -4t-18.5 10l-97 116z" />
    <glyph glyph-name="gcircumflex" unicode="&#x11d;" horiz-adv-x="586" 
d="M291 -189q-53 0 -103.5 12.5t-91.5 39.5q-12 7 -15.5 17t-1.5 19.5t9 17t16.5 9.5t19.5 -3q44 -27 84 -37t79 -10q71 0 107.5 38t36.5 110v113h10q-15 -58 -63.5 -92t-113.5 -34q-67 0 -116 30.5t-75.5 85.5t-26.5 127q0 54 15 98.5t43.5 76t69 49t90.5 17.5
q66 0 114 -33.5t62 -90.5l-10 -12v93q0 20 10.5 30.5t29.5 10.5q20 0 30 -10.5t10 -30.5v-417q0 -111 -55.5 -167.5t-163.5 -56.5zM279 77q47 0 81 21.5t52.5 61.5t18.5 94q0 81 -41 128.5t-111 47.5q-46 0 -80 -21.5t-52.5 -61t-18.5 -93.5q0 -81 41 -129t110 -48zM427 582
q6 -12 2.5 -21.5t-12 -13.5t-18 -2.5t-15.5 11.5l-89 143l-89 -143q-6 -10 -15.5 -11.5t-18 2.5t-12 13.5t2.5 21.5l83 152q9 16 21 24t28 8t28 -8t21 -24z" />
    <glyph glyph-name="Gbreve" unicode="&#x11e;" horiz-adv-x="726" 
d="M409 -9q-113 0 -190.5 43t-117.5 124t-40 194q0 84 22.5 151t66 113.5t106 72t141.5 25.5q63 0 122 -17.5t105 -55.5q12 -9 15 -20t-0.5 -22t-11 -18.5t-19 -8.5t-23.5 7q-41 32 -87 46.5t-102 14.5q-80 0 -135.5 -34t-84 -98t-28.5 -156q0 -140 65.5 -214t197.5 -74
q48 0 94 9.5t87 26.5l-18 -47v249h-143q-18 0 -27 9t-9 24q0 16 9 24t27 8h179q17 0 26 -9t9 -26v-261q0 -15 -5 -25t-17 -15q-42 -17 -100.5 -28.5t-113.5 -11.5zM391 760q-59 0 -104.5 35.5t-61.5 108.5q-3 14 4 23t18 9q8 1 14.5 -2t10 -8t4.5 -12q11 -55 44 -77.5
t71 -22.5q39 0 72 22.5t43 77.5q1 7 4.5 12t10 8t14.5 2q11 0 18 -9t4 -23q-15 -73 -61 -108.5t-105 -35.5z" />
    <glyph glyph-name="gbreve" unicode="&#x11f;" horiz-adv-x="586" 
d="M291 -189q-53 0 -103.5 12.5t-91.5 39.5q-12 7 -15.5 17t-1.5 19.5t9 17t16.5 9.5t19.5 -3q44 -27 84 -37t79 -10q71 0 107.5 38t36.5 110v113h10q-15 -58 -63.5 -92t-113.5 -34q-67 0 -116 30.5t-75.5 85.5t-26.5 127q0 54 15 98.5t43.5 76t69 49t90.5 17.5
q66 0 114 -33.5t62 -90.5l-10 -12v93q0 20 10.5 30.5t29.5 10.5q20 0 30 -10.5t10 -30.5v-417q0 -111 -55.5 -167.5t-163.5 -56.5zM279 77q47 0 81 21.5t52.5 61.5t18.5 94q0 81 -41 128.5t-111 47.5q-46 0 -80 -21.5t-52.5 -61t-18.5 -93.5q0 -81 41 -129t110 -48zM295 549
q-43 0 -75 20t-51.5 57.5t-25.5 87.5q-2 14 5 23t19 9q11 1 18 -6t9 -20q8 -58 34.5 -87t66.5 -29t67.5 29t33.5 87q2 13 9.5 20t17.5 6q12 0 19 -9t5 -23q-5 -50 -25 -87.5t-52 -57.5t-75 -20z" />
    <glyph glyph-name="Gdotaccent" unicode="&#x120;" horiz-adv-x="726" 
d="M409 -9q-113 0 -190.5 43t-117.5 124t-40 194q0 84 22.5 151t66 113.5t106 72t141.5 25.5q63 0 122 -17.5t105 -55.5q12 -9 15 -20t-0.5 -22t-11 -18.5t-19 -8.5t-23.5 7q-41 32 -87 46.5t-102 14.5q-80 0 -135.5 -34t-84 -98t-28.5 -156q0 -140 65.5 -214t197.5 -74
q48 0 94 9.5t87 26.5l-18 -47v249h-143q-18 0 -27 9t-9 24q0 16 9 24t27 8h179q17 0 26 -9t9 -26v-261q0 -15 -5 -25t-17 -15q-42 -17 -100.5 -28.5t-113.5 -11.5zM391 803q-23 0 -36 12.5t-13 35.5t13 35t36 12q24 0 36.5 -12t12.5 -35t-12.5 -35.5t-36.5 -12.5z" />
    <glyph glyph-name="gdotaccent" unicode="&#x121;" horiz-adv-x="586" 
d="M291 -189q-53 0 -103.5 12.5t-91.5 39.5q-12 7 -15.5 17t-1.5 19.5t9 17t16.5 9.5t19.5 -3q44 -27 84 -37t79 -10q71 0 107.5 38t36.5 110v113h10q-15 -58 -63.5 -92t-113.5 -34q-67 0 -116 30.5t-75.5 85.5t-26.5 127q0 54 15 98.5t43.5 76t69 49t90.5 17.5
q66 0 114 -33.5t62 -90.5l-10 -12v93q0 20 10.5 30.5t29.5 10.5q20 0 30 -10.5t10 -30.5v-417q0 -111 -55.5 -167.5t-163.5 -56.5zM279 77q47 0 81 21.5t52.5 61.5t18.5 94q0 81 -41 128.5t-111 47.5q-46 0 -80 -21.5t-52.5 -61t-18.5 -93.5q0 -81 41 -129t110 -48zM295 605
q-23 0 -36 13t-13 35q0 23 13 35.5t36 12.5q24 0 37 -12.5t13 -35.5t-13 -35.5t-37 -12.5z" />
    <glyph glyph-name="uni0122" unicode="&#x122;" horiz-adv-x="726" 
d="M409 -9q-113 0 -190.5 43t-117.5 124t-40 194q0 84 22.5 151t66 113.5t106 72t141.5 25.5q63 0 122 -17.5t105 -55.5q12 -9 15 -20t-0.5 -22t-11 -18.5t-19 -8.5t-23.5 7q-41 32 -87 46.5t-102 14.5q-80 0 -135.5 -34t-84 -98t-28.5 -156q0 -140 65.5 -214t197.5 -74
q48 0 94 9.5t87 26.5l-18 -47v249h-143q-18 0 -27 9t-9 24q0 16 9 24t27 8h179q17 0 26 -9t9 -26v-261q0 -15 -5 -25t-17 -15q-42 -17 -100.5 -28.5t-113.5 -11.5zM412 -250q-9 -10 -18.5 -12t-17 3.5t-8 14.5t7.5 22q11 15 16.5 33t5.5 33l3 -15q-26 0 -40.5 13t-14.5 35
t13.5 35t37.5 13q25 0 38.5 -14.5t13.5 -43.5q0 -19 -4 -40t-12 -41t-21 -36z" />
    <glyph glyph-name="uni0123" unicode="&#x123;" horiz-adv-x="586" 
d="M291 -189q-53 0 -103.5 12.5t-91.5 39.5q-12 7 -15.5 17t-1.5 19.5t9 17t16.5 9.5t19.5 -3q44 -27 84 -37t79 -10q71 0 107.5 38t36.5 110v113h10q-15 -58 -63.5 -92t-113.5 -34q-67 0 -116 30.5t-75.5 85.5t-26.5 127q0 54 15 98.5t43.5 76t69 49t90.5 17.5
q66 0 114 -33.5t62 -90.5l-10 -12v93q0 20 10.5 30.5t29.5 10.5q20 0 30 -10.5t10 -30.5v-417q0 -111 -55.5 -167.5t-163.5 -56.5zM279 77q47 0 81 21.5t52.5 61.5t18.5 94q0 81 -41 128.5t-111 47.5q-46 0 -80 -21.5t-52.5 -61t-18.5 -93.5q0 -81 41 -129t110 -48zM296 563
q-25 0 -38.5 14.5t-13.5 43.5q0 19 4 39.5t12.5 41t20.5 35.5q9 11 18.5 12.5t17 -3.5t8.5 -14.5t-8 -21.5q-11 -16 -16.5 -34t-5.5 -33l-3 15q26 0 40.5 -12.5t14.5 -35.5q0 -21 -13.5 -34t-37.5 -13z" />
    <glyph glyph-name="Hcircumflex" unicode="&#x124;" horiz-adv-x="761" 
d="M128 -7q-20 0 -30.5 11.5t-10.5 31.5v633q0 21 10.5 32t30.5 11t30.5 -11t10.5 -32v-276h423v276q0 21 10.5 32t30.5 11t30.5 -11t10.5 -32v-633q0 -20 -10.5 -31.5t-30.5 -11.5t-30.5 11.5t-10.5 31.5v286h-423v-286q0 -20 -10 -31.5t-31 -11.5zM284 768
q-9 -9 -19.5 -10t-18.5 4t-10 14t5 19l88 123q10 15 23 21.5t28 6.5q16 0 28.5 -6.5t23.5 -21.5l87 -123q8 -10 6 -19t-10.5 -14t-19 -4t-18.5 10l-97 116z" />
    <glyph glyph-name="hcircumflex" unicode="&#x125;" horiz-adv-x="568" 
d="M116 -7q-20 0 -30 11t-10 31v636q0 20 10 30.5t30 10.5q19 0 30 -10.5t11 -30.5v-293h-13q21 58 68.5 87.5t109.5 29.5q58 0 96.5 -21t57.5 -63.5t19 -107.5v-268q0 -20 -10.5 -31t-29.5 -11q-20 0 -30.5 11t-10.5 31v263q0 68 -26.5 99.5t-84.5 31.5q-67 0 -106.5 -41.5
t-39.5 -110.5v-242q0 -42 -41 -42zM190 768q-9 -9 -19.5 -10t-18.5 4t-10 14t5 19l88 123q10 15 23 21.5t28 6.5q16 0 28.5 -6.5t23.5 -21.5l87 -123q8 -10 6 -19t-10.5 -14t-19 -4t-18.5 10l-97 116z" />
    <glyph glyph-name="Hbar" unicode="&#x126;" horiz-adv-x="798" 
d="M147 -7q-20 0 -31 11.5t-11 31.5v495l23 -12h-86q-34 0 -34 33q0 15 9 23.5t25 8.5h79l-16 -23v108q0 21 11 32t31 11t30.5 -11t10.5 -32v-108l-13 23h448l-13 -23v108q0 21 11 32t31 11t30.5 -11t10.5 -32v-108l-18 23h81q35 0 35 -32q0 -15 -9 -24t-26 -9h-88l25 14
v-497q0 -20 -10.5 -31.5t-30.5 -11.5t-31 11.5t-11 31.5v281h-422v-281q0 -20 -10 -31.5t-31 -11.5zM188 388h422v131h-422v-131z" />
    <glyph glyph-name="hbar" unicode="&#x127;" horiz-adv-x="568" 
d="M116 -7q-20 0 -30 11t-10 31v519h-60q-16 0 -25 8t-9 22q0 30 34 30h78l-18 -27v86q0 19 10 29t30 10q19 0 30 -10t11 -29v-86l-18 27h179q16 0 24.5 -8t8.5 -22q0 -30 -33 -30h-161v-176h-13q21 58 68.5 87.5t109.5 29.5q58 0 96.5 -21t57.5 -63.5t19 -107.5v-268
q0 -20 -10.5 -31t-29.5 -11q-20 0 -30.5 11t-10.5 31v263q0 68 -26.5 99.5t-84.5 31.5q-67 0 -106.5 -41.5t-39.5 -110.5v-242q0 -42 -41 -42z" />
    <glyph glyph-name="Itilde" unicode="&#x128;" horiz-adv-x="257" 
d="M128 -7q-20 0 -30.5 11.5t-10.5 31.5v633q0 21 10.5 32t30.5 11t30.5 -11t10.5 -32v-633q0 -20 -10 -31.5t-31 -11.5zM-56 780q-11 0 -17.5 7.5t-4.5 20.5q10 53 41.5 82t75.5 29q27 0 51 -11.5t46.5 -26.5t43 -26.5t40.5 -11.5q27 0 44 17t22 45q3 11 9.5 16t16.5 4
q11 0 18 -7.5t4 -20.5q-10 -53 -40.5 -82t-75.5 -29q-27 0 -51.5 11.5t-46.5 26t-43 26.5t-41 12q-26 0 -43.5 -17t-22.5 -45q-3 -10 -9.5 -15.5t-16.5 -4.5z" />
    <glyph glyph-name="itilde" unicode="&#x129;" horiz-adv-x="232" 
d="M116 -5q-20 0 -30 11.5t-10 32.5v409q0 21 10 32t30 11q19 0 30 -11t11 -32v-409q0 -21 -10.5 -32.5t-30.5 -11.5zM-41 587q-10 0 -16.5 7t-3.5 21q4 24 12 44t21 35t30.5 23.5t40.5 8.5q25 0 43.5 -11.5t35 -26t32.5 -26.5t34 -12q23 0 38.5 17.5t20.5 46.5
q2 10 8.5 14.5t17.5 3.5q10 0 16.5 -7t3.5 -21q-5 -31 -18.5 -56t-34.5 -40t-51 -15q-25 0 -43.5 11.5t-35 26.5t-32.5 26.5t-34 11.5q-23 0 -38 -17t-21 -47q-2 -9 -8.5 -14t-17.5 -4z" />
    <glyph glyph-name="Imacron" unicode="&#x12a;" horiz-adv-x="257" 
d="M128 -7q-20 0 -30.5 11.5t-10.5 31.5v633q0 21 10.5 32t30.5 11t30.5 -11t10.5 -32v-633q0 -20 -10 -31.5t-31 -11.5zM-8 814q-29 0 -29 28q0 13 7.5 20t21.5 7h272q30 0 30 -27q0 -13 -7.5 -20.5t-22.5 -7.5h-272z" />
    <glyph glyph-name="imacron" unicode="&#x12b;" horiz-adv-x="232" 
d="M116 -5q-20 0 -30 11.5t-10 32.5v409q0 21 10 32t30 11q19 0 30 -11t11 -32v-409q0 -21 -10.5 -32.5t-30.5 -11.5zM-5 625q-29 0 -29 27q0 14 7.5 21t21.5 7h242q30 0 30 -28q0 -12 -7.5 -19.5t-22.5 -7.5h-242z" />
    <glyph glyph-name="Ibreve" unicode="&#x12c;" horiz-adv-x="257" 
d="M128 -7q-20 0 -30.5 11.5t-10.5 31.5v633q0 21 10.5 32t30.5 11t30.5 -11t10.5 -32v-633q0 -20 -10 -31.5t-31 -11.5zM128 760q-59 0 -104.5 35.5t-61.5 108.5q-3 14 4 23t18 9q8 1 14.5 -2t10 -8t4.5 -12q11 -55 44 -77.5t71 -22.5q39 0 72 22.5t43 77.5q1 7 4.5 12
t10 8t14.5 2q11 0 18 -9t4 -23q-15 -73 -61 -108.5t-105 -35.5z" />
    <glyph glyph-name="ibreve" unicode="&#x12d;" horiz-adv-x="232" 
d="M116 -5q-20 0 -30 11.5t-10 32.5v409q0 21 10 32t30 11q19 0 30 -11t11 -32v-409q0 -21 -10.5 -32.5t-30.5 -11.5zM116 549q-43 0 -75 20t-51.5 57.5t-25.5 87.5q-2 14 5 23t19 9q11 1 18 -6t9 -20q8 -58 34.5 -87t66.5 -29t67.5 29t33.5 87q2 13 9.5 20t17.5 6
q12 0 19 -9t5 -23q-5 -50 -25 -87.5t-52 -57.5t-75 -20z" />
    <glyph glyph-name="Iogonek" unicode="&#x12e;" horiz-adv-x="257" 
d="M138 -192q-48 0 -76.5 26t-28.5 71q0 32 17 62t48 51l-2 -10q-5 5 -7 12.5t-2 15.5v633q0 21 10.5 32t30.5 11t30.5 -11t10.5 -32v-633q0 -14 -5.5 -24.5t-13.5 -14.5q-23 -12 -41.5 -33t-18.5 -50q0 -28 17 -42t42 -14q9 0 17.5 1.5t16.5 4.5q14 4 21.5 -1t9.5 -14.5
t-2.5 -18.5t-14.5 -13q-15 -6 -30 -7.5t-29 -1.5z" />
    <glyph glyph-name="iogonek" unicode="&#x12f;" horiz-adv-x="232" 
d="M126 -192q-48 0 -77 26t-29 71q0 34 19.5 65.5t53.5 53.5l-6 -19q-5 6 -8 14.5t-3 19.5v409q0 21 10 32t30 11q19 0 30 -11t11 -32v-409q0 -15 -6 -26t-16 -16q-27 -18 -42 -38t-15 -45q0 -28 17 -42t41 -14q9 0 17.5 1.5t17.5 4.5q14 4 21.5 -1t9.5 -14.5t-2.5 -18.5
t-15.5 -13q-15 -6 -29.5 -7.5t-28.5 -1.5zM116 603q-25 0 -39 13.5t-14 36.5q0 24 14 36.5t39 12.5q26 0 39.5 -12.5t13.5 -36.5q0 -23 -13.5 -36.5t-39.5 -13.5z" />
    <glyph glyph-name="Idotaccent" unicode="&#x130;" horiz-adv-x="257" 
d="M128 -7q-20 0 -30.5 11.5t-10.5 31.5v633q0 21 10.5 32t30.5 11t30.5 -11t10.5 -32v-633q0 -20 -10 -31.5t-31 -11.5zM128 803q-23 0 -36 12.5t-13 35.5t13 35t36 12q24 0 36.5 -12t12.5 -35t-12.5 -35.5t-36.5 -12.5z" />
    <glyph glyph-name="dotlessi" unicode="&#x131;" horiz-adv-x="232" 
d="M116 -5q-20 0 -30 11.5t-10 32.5v409q0 21 10 32t30 11q19 0 30 -11t11 -32v-409q0 -21 -10.5 -32.5t-30.5 -11.5z" />
    <glyph glyph-name="IJ" unicode="&#x132;" horiz-adv-x="580" 
d="M128 -7q-20 0 -30.5 11.5t-10.5 31.5v633q0 21 10.5 32t30.5 11t30.5 -11t10.5 -32v-633q0 -20 -10 -31.5t-31 -11.5zM285 -6q-19 -1 -29.5 10t-10.5 27q0 12 7.5 22t23.5 11l31 2q51 4 78 35.5t27 86.5v482q0 21 10.5 31.5t30.5 10.5t30.5 -10.5t10.5 -31.5v-483
q0 -57 -20 -98.5t-59.5 -64.5t-96.5 -27z" />
    <glyph glyph-name="Jcircumflex" unicode="&#x134;" horiz-adv-x="324" 
d="M28 -6q-19 -1 -29.5 10t-10.5 27q0 12 7.5 22t23.5 11l31 2q51 4 78 35.5t27 86.5v482q0 21 10.5 31.5t30.5 10.5t30.5 -10.5t10.5 -31.5v-483q0 -57 -20 -98.5t-59.5 -64.5t-96.5 -27zM100 768q-9 -9 -19.5 -10t-18.5 4t-10 14t5 19l88 123q10 15 23 21.5t28 6.5
q16 0 28.5 -6.5t23.5 -21.5l87 -123q8 -10 6 -19t-10.5 -14t-19 -4t-18.5 10l-97 116z" />
    <glyph glyph-name="jcircumflex" unicode="&#x135;" horiz-adv-x="236" 
d="M-17 -191q-15 -1 -24.5 5t-13 15.5t-2 19t8.5 16.5t19 7q55 3 81.5 29.5t26.5 83.5v467q0 20 10.5 30.5t30.5 10.5q19 0 29.5 -10.5t10.5 -30.5v-461q0 -61 -20.5 -100.5t-59.5 -59t-97 -22.5zM251 582q6 -12 2.5 -21.5t-12 -13.5t-18 -2.5t-15.5 11.5l-89 143l-89 -143
q-6 -10 -15.5 -11.5t-18 2.5t-12 13.5t2.5 21.5l83 152q9 16 21 24t28 8t28 -8t21 -24z" />
    <glyph glyph-name="uni0136" unicode="&#x136;" horiz-adv-x="625" 
d="M128 -7q-20 0 -30.5 11.5t-10.5 31.5v634q0 21 10.5 31.5t30.5 10.5t30.5 -10.5t10.5 -31.5v-285h2l326 304q12 12 24 17.5t26 5.5q19 0 27.5 -9t6.5 -22t-14 -25l-341 -316l1 44l356 -329q15 -14 16 -28.5t-8.5 -24t-28.5 -9.5q-15 0 -25.5 6.5t-23.5 19.5l-342 313h-2
v-296q0 -20 -10 -31.5t-31 -11.5zM330 -250q-9 -10 -18.5 -12t-17 3.5t-8 14.5t7.5 22q11 15 16.5 33t5.5 33l3 -15q-26 0 -40.5 13t-14.5 35t13.5 35t37.5 13q25 0 38.5 -14.5t13.5 -43.5q0 -19 -4 -40t-12 -41t-21 -36z" />
    <glyph glyph-name="uni0137" unicode="&#x137;" horiz-adv-x="500" 
d="M116 -7q-20 0 -30 11t-10 31v636q0 20 10 30.5t30 10.5q19 0 30 -10.5t11 -30.5v-401h2l205 196q14 13 24.5 20t28.5 7q16 0 25 -8.5t8.5 -21t-12.5 -26.5l-218 -207v44l237 -223q14 -14 14 -27t-9.5 -22t-24.5 -9q-18 0 -29 7.5t-27 22.5l-222 205h-2v-193
q0 -42 -41 -42zM264 -250q-9 -10 -18.5 -12t-17 3.5t-8 14.5t7.5 22q11 15 16.5 33t5.5 33l3 -15q-26 0 -40.5 13t-14.5 35t13.5 35t37.5 13q25 0 38.5 -14.5t13.5 -43.5q0 -19 -4 -40t-12 -41t-21 -36z" />
    <glyph glyph-name="kgreenlandic" unicode="&#x138;" horiz-adv-x="500" 
d="M116 -7q-20 0 -30 11t-10 31v417q0 20 10 30.5t30 10.5q19 0 30 -10.5t11 -30.5v-182h2l205 196q14 13 24.5 20t27.5 7q16 0 25 -8.5t9 -21t-12 -26.5l-218 -207v44l237 -223q14 -14 14 -27t-9.5 -22t-24.5 -9q-18 0 -29 7.5t-27 22.5l-222 205h-2v-193q0 -20 -10.5 -31
t-30.5 -11z" />
    <glyph glyph-name="Lacute" unicode="&#x139;" horiz-adv-x="543" 
d="M129 0q-20 0 -31 11.5t-11 31.5v624q0 21 10.5 32t30.5 11t30.5 -11t10.5 -32v-595h328q18 0 28 -9.5t10 -26.5t-10 -26.5t-28 -9.5h-368zM163 769q-8 -9 -18.5 -9.5t-18.5 5t-10.5 14.5t4.5 20l89 129q9 13 20 16t22 -0.5t17.5 -11.5t7 -18.5t-8.5 -21.5z" />
    <glyph glyph-name="lacute" unicode="&#x13a;" horiz-adv-x="296" 
d="M224 -9q-72 0 -110 44t-38 126v510q0 20 10 30.5t30 10.5q19 0 30 -10.5t11 -30.5v-504q0 -54 21.5 -80.5t63.5 -26.5q9 0 16 1t14 1q11 1 15.5 -5t4.5 -24t-8 -27t-26 -12q-8 -1 -17 -2t-17 -1zM151 769q-8 -9 -18.5 -9.5t-18.5 5t-10.5 14.5t4.5 20l89 129q9 13 20 16
t22 -0.5t17.5 -11.5t7 -18.5t-8.5 -21.5z" />
    <glyph glyph-name="uni013B" unicode="&#x13b;" horiz-adv-x="543" 
d="M129 0q-20 0 -31 11.5t-11 31.5v624q0 21 10.5 32t30.5 11t30.5 -11t10.5 -32v-595h328q18 0 28 -9.5t10 -26.5t-10 -26.5t-28 -9.5h-368zM321 -250q-9 -10 -18.5 -12t-17 3.5t-8 14.5t7.5 22q11 15 16.5 33t5.5 33l3 -15q-26 0 -40.5 13t-14.5 35t13.5 35t37.5 13
q25 0 38.5 -14.5t13.5 -43.5q0 -19 -4 -40t-12 -41t-21 -36z" />
    <glyph glyph-name="uni013C" unicode="&#x13c;" horiz-adv-x="296" 
d="M224 -9q-72 0 -110 44t-38 126v510q0 20 10 30.5t30 10.5q19 0 30 -10.5t11 -30.5v-504q0 -54 21.5 -80.5t63.5 -26.5q9 0 16 1t14 1q11 1 15.5 -5t4.5 -24t-8 -27t-26 -12q-8 -1 -17 -2t-17 -1zM200 -250q-9 -10 -18.5 -12t-17 3.5t-8 14.5t7.5 22q11 15 16.5 33t5.5 33
l3 -15q-26 0 -40.5 13t-14.5 35t13.5 35t37.5 13q25 0 38.5 -14.5t13.5 -43.5q0 -19 -4 -40t-12 -41t-21 -36z" />
    <glyph glyph-name="Lcaron" unicode="&#x13d;" horiz-adv-x="543" 
d="M129 0q-20 0 -31 11.5t-11 31.5v624q0 21 10.5 32t30.5 11t30.5 -11t10.5 -32v-595h328q18 0 28 -9.5t10 -26.5t-10 -26.5t-28 -9.5h-368zM309 475q-11 0 -18 7t-7 20v174q0 17 9.5 26.5t26.5 9.5t25.5 -9.5t7.5 -28.5l-16 -174q-2 -25 -28 -25z" />
    <glyph glyph-name="lcaron" unicode="&#x13e;" horiz-adv-x="296" 
d="M224 -9q-72 0 -110 44t-38 126v510q0 20 10 30.5t30 10.5q19 0 30 -10.5t11 -30.5v-504q0 -54 21.5 -80.5t63.5 -26.5q9 0 16 1t14 1q11 1 15.5 -5t4.5 -24t-8 -27t-26 -12q-8 -1 -17 -2t-17 -1zM223 510q-9 0 -15 5.5t-6 16.5v147q0 33 33 33q16 0 24 -9t5 -26l-18 -146
q-4 -21 -23 -21z" />
    <glyph glyph-name="Ldot" unicode="&#x13f;" horiz-adv-x="543" 
d="M129 0q-20 0 -31 11.5t-11 31.5v624q0 21 10.5 32t30.5 11t30.5 -11t10.5 -32v-595h328q18 0 28 -9.5t10 -26.5t-10 -26.5t-28 -9.5h-368zM403 335q-24 0 -39.5 15.5t-15.5 39.5t15.5 39t39.5 15q26 0 40.5 -15t14.5 -39t-14.5 -39.5t-40.5 -15.5z" />
    <glyph glyph-name="ldot" unicode="&#x140;" horiz-adv-x="327" 
d="M224 -9q-72 0 -110 44t-38 126v510q0 20 10 30.5t30 10.5q19 0 30 -10.5t11 -30.5v-504q0 -54 21.5 -80.5t63.5 -26.5q9 0 16 1t14 1q11 1 15.5 -5t4.5 -24t-8 -27t-26 -12q-8 -1 -17 -2t-17 -1zM281 298q-24 0 -39.5 15.5t-15.5 39.5t15.5 39t39.5 15q26 0 40.5 -15
t14.5 -39t-14.5 -39.5t-40.5 -15.5z" />
    <glyph glyph-name="Lslash" unicode="&#x141;" horiz-adv-x="543" 
d="M129 0q-20 0 -31 11.5t-11 31.5v624q0 21 10.5 32t30.5 11t30.5 -11t10.5 -32v-595h328q18 0 28 -9.5t10 -26.5t-10 -26.5t-28 -9.5h-368zM32 268q-13 -8 -24 -6.5t-18.5 8.5t-9.5 17t2.5 20.5t17.5 18.5l314 180q14 8 24.5 6.5t18 -8.5t9.5 -17.5t-2 -20.5t-18 -18z" />
    <glyph glyph-name="lslash" unicode="&#x142;" horiz-adv-x="296" 
d="M224 -9q-72 0 -110 44t-38 126v510q0 20 10 30.5t30 10.5q19 0 30 -10.5t11 -30.5v-504q0 -54 21.5 -80.5t63.5 -26.5q9 0 16 1t14 1q11 1 15.5 -5t4.5 -24t-8 -27t-26 -12q-8 -1 -17 -2t-17 -1zM35 266q-13 -7 -24 -6t-18 8.5t-9.5 17t1.5 20t17 17.5l216 126q13 7 24 6
t18.5 -8.5t9.5 -17t-2 -20t-17 -18.5z" />
    <glyph glyph-name="Nacute" unicode="&#x143;" horiz-adv-x="740" 
d="M126 -7q-19 0 -29 10.5t-10 30.5v636q0 20 10 31t26 11t23.5 -5.5t17.5 -19.5l436 -581h-24v566q0 19 10 29.5t29 10.5q18 0 27.5 -10.5t9.5 -29.5v-639q0 -19 -8.5 -29.5t-24.5 -10.5q-15 0 -24 6t-19 19l-435 581h23v-565q0 -20 -10 -30.5t-28 -10.5zM405 769
q-8 -9 -18.5 -9.5t-18.5 5t-10.5 14.5t4.5 20l89 129q9 13 20 16t22 -0.5t17.5 -11.5t7 -18.5t-8.5 -21.5z" />
    <glyph glyph-name="nacute" unicode="&#x144;" horiz-adv-x="568" 
d="M116 -7q-20 0 -30 11t-10 31v417q0 20 10 30.5t29 10.5t29.5 -10.5t10.5 -30.5v-86l-11 12q21 58 68.5 87.5t109.5 29.5q58 0 96.5 -21t57.5 -63.5t19 -107.5v-268q0 -20 -10.5 -31t-29.5 -11q-20 0 -30.5 11t-10.5 31v263q0 68 -26.5 99.5t-84.5 31.5
q-67 0 -106.5 -41.5t-39.5 -110.5v-242q0 -42 -41 -42zM318 556q-7 -10 -17 -11.5t-19 3t-13 13.5t2 21l84 163q7 14 18 18t22.5 1.5t19.5 -10.5t9.5 -19t-6.5 -23z" />
    <glyph glyph-name="uni0145" unicode="&#x145;" horiz-adv-x="740" 
d="M126 -7q-19 0 -29 10.5t-10 30.5v636q0 20 10 31t26 11t23.5 -5.5t17.5 -19.5l436 -581h-24v566q0 19 10 29.5t29 10.5q18 0 27.5 -10.5t9.5 -29.5v-639q0 -19 -8.5 -29.5t-24.5 -10.5q-15 0 -24 6t-19 19l-435 581h23v-565q0 -20 -10 -30.5t-28 -10.5zM384 -250
q-9 -10 -18.5 -12t-17 3.5t-8 14.5t7.5 22q11 15 16.5 33t5.5 33l3 -15q-26 0 -40.5 13t-14.5 35t13.5 35t37.5 13q25 0 38.5 -14.5t13.5 -43.5q0 -19 -4 -40t-12 -41t-21 -36z" />
    <glyph glyph-name="uni0146" unicode="&#x146;" horiz-adv-x="568" 
d="M116 -7q-20 0 -30 11t-10 31v417q0 20 10 30.5t29 10.5t29.5 -10.5t10.5 -30.5v-86l-11 12q21 58 68.5 87.5t109.5 29.5q58 0 96.5 -21t57.5 -63.5t19 -107.5v-268q0 -20 -10.5 -31t-29.5 -11q-20 0 -30.5 11t-10.5 31v263q0 68 -26.5 99.5t-84.5 31.5
q-67 0 -106.5 -41.5t-39.5 -110.5v-242q0 -42 -41 -42zM299 -250q-9 -10 -18.5 -12t-17 3.5t-8 14.5t7.5 22q11 15 16.5 33t5.5 33l3 -15q-26 0 -40.5 13t-14.5 35t13.5 35t37.5 13q25 0 38.5 -14.5t13.5 -43.5q0 -19 -4 -40t-12 -41t-21 -36z" />
    <glyph glyph-name="Ncaron" unicode="&#x147;" horiz-adv-x="740" 
d="M126 -7q-19 0 -29 10.5t-10 30.5v636q0 20 10 31t26 11t23.5 -5.5t17.5 -19.5l436 -581h-24v566q0 19 10 29.5t29 10.5q18 0 27.5 -10.5t9.5 -29.5v-639q0 -19 -8.5 -29.5t-24.5 -10.5q-15 0 -24 6t-19 19l-435 581h23v-565q0 -20 -10 -30.5t-28 -10.5zM370 756
q-15 0 -28 6.5t-23 20.5l-88 124q-7 10 -5 19.5t10 14.5t18.5 3.5t19.5 -11.5l96 -115l97 115q8 10 18.5 11.5t18.5 -3.5t10 -14.5t-5 -19.5l-87 -124q-11 -14 -23.5 -20.5t-28.5 -6.5z" />
    <glyph glyph-name="ncaron" unicode="&#x148;" horiz-adv-x="568" 
d="M116 -7q-20 0 -30 11t-10 31v417q0 20 10 30.5t29 10.5t29.5 -10.5t10.5 -30.5v-86l-11 12q21 58 68.5 87.5t109.5 29.5q58 0 96.5 -21t57.5 -63.5t19 -107.5v-268q0 -20 -10.5 -31t-29.5 -11q-20 0 -30.5 11t-10.5 31v263q0 68 -26.5 99.5t-84.5 31.5
q-67 0 -106.5 -41.5t-39.5 -110.5v-242q0 -42 -41 -42zM285 538q-16 0 -28 8.5t-21 24.5l-83 151q-6 12 -2.5 21.5t12 14t18 2.5t15.5 -12l89 -143l89 143q6 10 15.5 12t18 -2.5t12 -14t-2.5 -21.5l-83 -151q-9 -16 -21 -24.5t-28 -8.5z" />
    <glyph glyph-name="napostrophe" unicode="&#x149;" horiz-adv-x="568" 
d="M50 586q-9 -11 -19 -12.5t-17 3.5t-8 14t8 22q11 16 16 33.5t5 32.5l3 -15q-25 0 -39.5 13.5t-14.5 34.5q0 22 13.5 35t37.5 13t38 -14.5t14 -43.5q0 -19 -4 -40t-12.5 -40.5t-20.5 -35.5zM116 -7q-20 0 -30 11t-10 31v417q0 20 10 30.5t29 10.5t29.5 -10.5t10.5 -30.5
v-86l-11 12q21 58 68.5 87.5t109.5 29.5q58 0 96.5 -21t57.5 -63.5t19 -107.5v-268q0 -20 -10.5 -31t-29.5 -11q-20 0 -30.5 11t-10.5 31v263q0 68 -26.5 99.5t-84.5 31.5q-67 0 -106.5 -41.5t-39.5 -110.5v-242q0 -42 -41 -42z" />
    <glyph glyph-name="Eng" unicode="&#x14a;" horiz-adv-x="740" 
d="M475 -191q-15 -1 -24.5 5t-13 15.5t-2 19t8.5 16.5t20 7q55 4 83.5 29.5t28.5 83.5v52l14 -37l-449 599h23v-565q0 -20 -10 -30.5t-28 -10.5q-19 0 -29 10.5t-10 30.5v636q0 20 10 31t26 11t23.5 -5.5t17.5 -19.5l436 -581h-24v566q0 19 10 29.5t29 10.5q18 0 27.5 -10.5
t9.5 -29.5v-679q0 -95 -46 -137.5t-131 -46.5z" />
    <glyph glyph-name="eng" unicode="&#x14b;" horiz-adv-x="568" 
d="M314 -192q-15 0 -24 5.5t-13 15t-2 19t9.5 16.5t19.5 8q56 4 83 29.5t27 83.5v313q0 68 -26.5 99.5t-84.5 31.5q-67 0 -106.5 -41.5t-39.5 -110.5v-242q0 -42 -41 -42q-20 0 -30 11t-10 31v417q0 20 10 30.5t29 10.5t29.5 -10.5t10.5 -30.5v-86l-11 12q21 58 68.5 87.5
t109.5 29.5q58 0 96.5 -21t57.5 -63.5t19 -107.5v-312q0 -61 -20.5 -100.5t-60.5 -59.5t-100 -23z" />
    <glyph glyph-name="Omacron" unicode="&#x14c;" horiz-adv-x="767" 
d="M383 -9q-98 0 -170.5 44.5t-112 125.5t-39.5 192q0 84 22.5 150.5t64.5 113t101.5 72t133.5 25.5q100 0 172.5 -44t112 -124.5t39.5 -191.5q0 -84 -23 -151t-65 -114t-101.5 -72.5t-134.5 -25.5zM383 64q76 0 128.5 34t80.5 99t28 156q0 137 -61.5 212.5t-175.5 75.5
q-74 0 -126.5 -34t-80.5 -98.5t-28 -155.5q0 -136 62 -212.5t173 -76.5zM247 814q-29 0 -29 28q0 13 7.5 20t21.5 7h272q30 0 30 -27q0 -13 -7.5 -20.5t-22.5 -7.5h-272z" />
    <glyph glyph-name="omacron" unicode="&#x14d;" horiz-adv-x="556" 
d="M278 -9q-71 0 -123 31t-80.5 87.5t-28.5 133.5q0 58 16 104.5t47 79.5t73.5 50.5t95.5 17.5q71 0 123 -31t80.5 -87.5t28.5 -133.5q0 -58 -16 -104t-47 -79.5t-73.5 -51t-95.5 -17.5zM278 56q45 0 79 22t52.5 64t18.5 101q0 91 -40.5 139t-109.5 48q-46 0 -79.5 -21.5
t-52 -63t-18.5 -102.5q0 -90 41 -138.5t109 -48.5zM157 625q-29 0 -29 27q0 14 7.5 21t21.5 7h242q30 0 30 -28q0 -12 -7.5 -19.5t-22.5 -7.5h-242z" />
    <glyph glyph-name="Obreve" unicode="&#x14e;" horiz-adv-x="767" 
d="M383 -9q-98 0 -170.5 44.5t-112 125.5t-39.5 192q0 84 22.5 150.5t64.5 113t101.5 72t133.5 25.5q100 0 172.5 -44t112 -124.5t39.5 -191.5q0 -84 -23 -151t-65 -114t-101.5 -72.5t-134.5 -25.5zM383 64q76 0 128.5 34t80.5 99t28 156q0 137 -61.5 212.5t-175.5 75.5
q-74 0 -126.5 -34t-80.5 -98.5t-28 -155.5q0 -136 62 -212.5t173 -76.5zM383 760q-59 0 -104.5 35.5t-61.5 108.5q-3 14 4 23t18 9q8 1 14.5 -2t10 -8t4.5 -12q11 -55 44 -77.5t71 -22.5q39 0 72 22.5t43 77.5q1 7 4.5 12t10 8t14.5 2q11 0 18 -9t4 -23q-15 -73 -61 -108.5
t-105 -35.5z" />
    <glyph glyph-name="obreve" unicode="&#x14f;" horiz-adv-x="556" 
d="M278 -9q-71 0 -123 31t-80.5 87.5t-28.5 133.5q0 58 16 104.5t47 79.5t73.5 50.5t95.5 17.5q71 0 123 -31t80.5 -87.5t28.5 -133.5q0 -58 -16 -104t-47 -79.5t-73.5 -51t-95.5 -17.5zM278 56q45 0 79 22t52.5 64t18.5 101q0 91 -40.5 139t-109.5 48q-46 0 -79.5 -21.5
t-52 -63t-18.5 -102.5q0 -90 41 -138.5t109 -48.5zM278 549q-43 0 -75 20t-51.5 57.5t-25.5 87.5q-2 14 5 23t19 9q11 1 18 -6t9 -20q8 -58 34.5 -87t66.5 -29t67.5 29t33.5 87q2 13 9.5 20t17.5 6q12 0 19 -9t5 -23q-5 -50 -25 -87.5t-52 -57.5t-75 -20z" />
    <glyph glyph-name="Ohungarumlaut" unicode="&#x150;" horiz-adv-x="767" 
d="M383 -9q-98 0 -170.5 44.5t-112 125.5t-39.5 192q0 84 22.5 150.5t64.5 113t101.5 72t133.5 25.5q100 0 172.5 -44t112 -124.5t39.5 -191.5q0 -84 -23 -151t-65 -114t-101.5 -72.5t-134.5 -25.5zM383 64q76 0 128.5 34t80.5 99t28 156q0 137 -61.5 212.5t-175.5 75.5
q-74 0 -126.5 -34t-80.5 -98.5t-28 -155.5q0 -136 62 -212.5t173 -76.5zM347 769q-7 -9 -15.5 -11t-16 1.5t-10 11.5t2.5 18l68 136q6 13 16.5 17.5t21 2t17.5 -9.5t8.5 -17.5t-7.5 -22.5zM472 768q-7 -9 -15 -10.5t-15 2.5t-9 12t3 18l70 135q7 14 17.5 18t20.5 1.5
t17 -9.5t8 -17.5t-8 -22.5z" />
    <glyph glyph-name="ohungarumlaut" unicode="&#x151;" horiz-adv-x="556" 
d="M278 -9q-71 0 -123 31t-80.5 87.5t-28.5 133.5q0 58 16 104.5t47 79.5t73.5 50.5t95.5 17.5q71 0 123 -31t80.5 -87.5t28.5 -133.5q0 -58 -16 -104t-47 -79.5t-73.5 -51t-95.5 -17.5zM278 56q45 0 79 22t52.5 64t18.5 101q0 91 -40.5 139t-109.5 48q-46 0 -79.5 -21.5
t-52 -63t-18.5 -102.5q0 -90 41 -138.5t109 -48.5zM367 558q-4 -9 -12 -12.5t-16.5 -1t-13.5 9.5t-2 17l45 165q4 15 13.5 22t20.5 7.5t20.5 -5t13.5 -15.5t-2 -24zM239 558q-4 -9 -12 -12.5t-16.5 -1t-13 9.5t-1.5 17l45 165q3 15 13 22t21 7.5t20.5 -5.5t13 -15.5
t-2.5 -23.5z" />
    <glyph glyph-name="OE" unicode="&#x152;" horiz-adv-x="1046" 
d="M418 0q-172 0 -264.5 91t-92.5 262q0 86 23.5 151.5t69.5 110.5t112 67.5t152 22.5h549q17 0 26.5 -9t9.5 -25q0 -17 -9.5 -26t-26.5 -9h-336v-244h315q18 0 27 -8.5t9 -25.5t-9 -26t-27 -9h-315v-254h336q17 0 26.5 -9t9.5 -25q0 -17 -9.5 -26t-26.5 -9h-549zM424 70
h127v565h-127q-69 0 -121 -17.5t-86.5 -53t-51.5 -88.5t-17 -123q0 -141 68.5 -212t207.5 -71z" />
    <glyph glyph-name="oe" unicode="&#x153;" horiz-adv-x="910" 
d="M276 -9q-70 0 -121.5 31t-80 87.5t-28.5 133.5q0 58 16 104.5t46.5 79.5t73 50.5t94.5 17.5q75 0 128 -39t76 -108h-23q22 68 76.5 107.5t128.5 39.5q64 0 110.5 -29t71 -82t24.5 -127q0 -16 -8.5 -23.5t-25.5 -7.5h-344v53h325l-16 -12q0 53 -16 90.5t-46.5 57.5
t-75.5 20q-50 0 -83.5 -23.5t-51 -65t-17.5 -96.5v-6q0 -91 42.5 -139.5t123.5 -48.5q32 0 65.5 9t65.5 30q13 9 24.5 8.5t19 -7t10 -16t-2 -20.5t-17.5 -19q-34 -24 -78 -37t-86 -13q-84 0 -141.5 38t-79.5 110h24q-23 -69 -75.5 -108.5t-127.5 -39.5zM278 56q45 0 79 22
t52.5 64t18.5 101q0 91 -40.5 139t-109.5 48q-46 0 -79.5 -21.5t-52 -63t-18.5 -102.5q0 -90 41 -138.5t109 -48.5z" />
    <glyph glyph-name="Racute" unicode="&#x154;" horiz-adv-x="669" 
d="M128 -7q-20 0 -30.5 11.5t-10.5 31.5v627q0 21 11 31.5t31 10.5h237q113 0 174 -53t61 -151q0 -62 -27.5 -107.5t-80.5 -69t-127 -23.5l10 13h20q39 0 68 -20t53 -64l96 -179q8 -14 7.5 -27.5t-9.5 -22t-26 -8.5t-28 8t-19 23l-109 202q-23 43 -53 57.5t-79 14.5h-128
v-262q0 -20 -10 -31.5t-31 -11.5zM169 363h185q82 0 124 34.5t42 103.5q0 67 -42 101.5t-124 34.5h-185v-274zM376 769q-8 -9 -18.5 -9.5t-18.5 5t-10.5 14.5t4.5 20l89 129q9 13 20 16t22 -0.5t17.5 -11.5t7 -18.5t-8.5 -21.5z" />
    <glyph glyph-name="racute" unicode="&#x155;" horiz-adv-x="358" 
d="M117 -7q-20 0 -30.5 11t-10.5 31v417q0 20 10 30.5t29 10.5t29.5 -10.5t10.5 -30.5v-81h-10q16 59 61 91t111 34q15 1 24 -6.5t10 -25.5q1 -17 -8 -27t-28 -12l-16 -2q-68 -6 -104.5 -43.5t-36.5 -102.5v-242q0 -20 -10.5 -31t-30.5 -11zM248 556q-7 -10 -17 -11.5t-19 3
t-13 13.5t2 21l84 163q7 14 18 18t22.5 1.5t19.5 -10.5t9.5 -19t-6.5 -23z" />
    <glyph glyph-name="uni0156" unicode="&#x156;" horiz-adv-x="669" 
d="M128 -7q-20 0 -30.5 11.5t-10.5 31.5v627q0 21 11 31.5t31 10.5h237q113 0 174 -53t61 -151q0 -62 -27.5 -107.5t-80.5 -69t-127 -23.5l10 13h20q39 0 68 -20t53 -64l96 -179q8 -14 7.5 -27.5t-9.5 -22t-26 -8.5t-28 8t-19 23l-109 202q-23 43 -53 57.5t-79 14.5h-128
v-262q0 -20 -10 -31.5t-31 -11.5zM169 363h185q82 0 124 34.5t42 103.5q0 67 -42 101.5t-124 34.5h-185v-274zM355 -250q-9 -10 -18.5 -12t-17 3.5t-8 14.5t7.5 22q11 15 16.5 33t5.5 33l3 -15q-26 0 -40.5 13t-14.5 35t13.5 35t37.5 13q25 0 38.5 -14.5t13.5 -43.5
q0 -19 -4 -40t-12 -41t-21 -36z" />
    <glyph glyph-name="uni0157" unicode="&#x157;" horiz-adv-x="358" 
d="M117 -7q-20 0 -30.5 11t-10.5 31v417q0 20 10 30.5t29 10.5t29.5 -10.5t10.5 -30.5v-81h-10q16 59 61 91t111 34q15 1 24 -6.5t10 -25.5q1 -17 -8 -27t-28 -12l-16 -2q-68 -6 -104.5 -43.5t-36.5 -102.5v-242q0 -20 -10.5 -31t-30.5 -11zM130 -250q-9 -10 -18.5 -12
t-17 3.5t-8 14.5t7.5 22q11 15 16.5 33t5.5 33l3 -15q-26 0 -40.5 13t-14.5 35t13.5 35t37.5 13q25 0 38.5 -14.5t13.5 -43.5q0 -19 -4 -40t-12 -41t-21 -36z" />
    <glyph glyph-name="Rcaron" unicode="&#x158;" horiz-adv-x="669" 
d="M128 -7q-20 0 -30.5 11.5t-10.5 31.5v627q0 21 11 31.5t31 10.5h237q113 0 174 -53t61 -151q0 -62 -27.5 -107.5t-80.5 -69t-127 -23.5l10 13h20q39 0 68 -20t53 -64l96 -179q8 -14 7.5 -27.5t-9.5 -22t-26 -8.5t-28 8t-19 23l-109 202q-23 43 -53 57.5t-79 14.5h-128
v-262q0 -20 -10 -31.5t-31 -11.5zM169 363h185q82 0 124 34.5t42 103.5q0 67 -42 101.5t-124 34.5h-185v-274zM341 756q-15 0 -28 6.5t-23 20.5l-88 124q-7 10 -5 19.5t10 14.5t18.5 3.5t19.5 -11.5l96 -115l97 115q8 10 18.5 11.5t18.5 -3.5t10 -14.5t-5 -19.5l-87 -124
q-11 -14 -23.5 -20.5t-28.5 -6.5z" />
    <glyph glyph-name="rcaron" unicode="&#x159;" horiz-adv-x="358" 
d="M117 -7q-20 0 -30.5 11t-10.5 31v417q0 20 10 30.5t29 10.5t29.5 -10.5t10.5 -30.5v-81h-10q16 59 61 91t111 34q15 1 24 -6.5t10 -25.5q1 -17 -8 -27t-28 -12l-16 -2q-68 -6 -104.5 -43.5t-36.5 -102.5v-242q0 -20 -10.5 -31t-30.5 -11zM215 538q-16 0 -28 8.5t-21 24.5
l-83 151q-6 12 -2.5 21.5t12 14t18 2.5t15.5 -12l89 -143l89 143q6 10 15.5 12t18 -2.5t12 -14t-2.5 -21.5l-83 -151q-9 -16 -21 -24.5t-28 -8.5z" />
    <glyph glyph-name="Sacute" unicode="&#x15a;" horiz-adv-x="615" 
d="M315 -9q-47 0 -92 8t-83.5 23t-69.5 38q-12 9 -16.5 20.5t-2 23t10 19.5t18.5 9t24 -7q45 -32 96 -46.5t115 -14.5q90 0 133.5 33.5t43.5 88.5q0 45 -31.5 70.5t-105.5 40.5l-104 21q-94 20 -140.5 65.5t-46.5 121.5q0 47 19 85.5t53 66t81 42.5t104 15q63 0 117.5 -17.5
t98.5 -52.5q11 -9 15 -20.5t1 -22t-10.5 -17.5t-19 -8t-25.5 8q-40 30 -83 43.5t-95 13.5q-53 0 -91.5 -16t-60 -46.5t-21.5 -70.5q0 -48 29.5 -76t96.5 -41l104 -22q101 -21 149.5 -63.5t48.5 -115.5q0 -44 -18 -81t-52 -63.5t-82 -40.5t-108 -14zM349 769
q-8 -9 -18.5 -9.5t-18.5 5t-10.5 14.5t4.5 20l89 129q9 13 20 16t22 -0.5t17.5 -11.5t7 -18.5t-8.5 -21.5z" />
    <glyph glyph-name="sacute" unicode="&#x15b;" horiz-adv-x="481" 
d="M240 -9q-45 0 -90.5 11t-84.5 38q-10 7 -14 16.5t-2.5 19t8 16.5t16 8.5t21.5 -4.5q39 -24 75.5 -33.5t72.5 -9.5q57 0 86 21t29 57q0 28 -19 44.5t-60 25.5l-91 20q-63 13 -93.5 45t-30.5 83q0 45 23.5 77.5t66.5 50.5t100 18q44 0 83.5 -11.5t71.5 -36.5
q10 -7 13.5 -16.5t1 -19t-9.5 -16t-17 -7.5t-21 6q-30 20 -61 29.5t-61 9.5q-56 0 -85 -22t-29 -58q0 -28 18 -46t56 -26l91 -19q65 -14 97.5 -44.5t32.5 -82.5q0 -66 -53 -105t-141 -39zM282 556q-7 -10 -17 -11.5t-19 3t-13 13.5t2 21l84 163q7 14 18 18t22.5 1.5
t19.5 -10.5t9.5 -19t-6.5 -23z" />
    <glyph glyph-name="Scircumflex" unicode="&#x15c;" horiz-adv-x="615" 
d="M315 -9q-47 0 -92 8t-83.5 23t-69.5 38q-12 9 -16.5 20.5t-2 23t10 19.5t18.5 9t24 -7q45 -32 96 -46.5t115 -14.5q90 0 133.5 33.5t43.5 88.5q0 45 -31.5 70.5t-105.5 40.5l-104 21q-94 20 -140.5 65.5t-46.5 121.5q0 47 19 85.5t53 66t81 42.5t104 15q63 0 117.5 -17.5
t98.5 -52.5q11 -9 15 -20.5t1 -22t-10.5 -17.5t-19 -8t-25.5 8q-40 30 -83 43.5t-95 13.5q-53 0 -91.5 -16t-60 -46.5t-21.5 -70.5q0 -48 29.5 -76t96.5 -41l104 -22q101 -21 149.5 -63.5t48.5 -115.5q0 -44 -18 -81t-52 -63.5t-82 -40.5t-108 -14zM218 768q-9 -9 -19.5 -10
t-18.5 4t-10 14t5 19l88 123q10 15 23 21.5t28 6.5q16 0 28.5 -6.5t23.5 -21.5l87 -123q8 -10 6 -19t-10.5 -14t-19 -4t-18.5 10l-97 116z" />
    <glyph glyph-name="scircumflex" unicode="&#x15d;" horiz-adv-x="481" 
d="M240 -9q-45 0 -90.5 11t-84.5 38q-10 7 -14 16.5t-2.5 19t8 16.5t16 8.5t21.5 -4.5q39 -24 75.5 -33.5t72.5 -9.5q57 0 86 21t29 57q0 28 -19 44.5t-60 25.5l-91 20q-63 13 -93.5 45t-30.5 83q0 45 23.5 77.5t66.5 50.5t100 18q44 0 83.5 -11.5t71.5 -36.5
q10 -7 13.5 -16.5t1 -19t-9.5 -16t-17 -7.5t-21 6q-30 20 -61 29.5t-61 9.5q-56 0 -85 -22t-29 -58q0 -28 18 -46t56 -26l91 -19q65 -14 97.5 -44.5t32.5 -82.5q0 -66 -53 -105t-141 -39zM381 582q6 -12 2.5 -21.5t-12 -13.5t-18 -2.5t-15.5 11.5l-89 143l-89 -143
q-6 -10 -15.5 -11.5t-18 2.5t-12 13.5t2.5 21.5l83 152q9 16 21 24t28 8t28 -8t21 -24z" />
    <glyph glyph-name="Scedilla" unicode="&#x15e;" horiz-adv-x="615" 
d="M315 -9q-47 0 -92 8t-83.5 23t-69.5 38q-12 9 -16.5 20.5t-2 23t10 19.5t18.5 9t24 -7q45 -32 96 -46.5t115 -14.5q90 0 133.5 33.5t43.5 88.5q0 45 -31.5 70.5t-105.5 40.5l-104 21q-94 20 -140.5 65.5t-46.5 121.5q0 47 19 85.5t53 66t81 42.5t104 15q63 0 117.5 -17.5
t98.5 -52.5q11 -9 15 -20.5t1 -22t-10.5 -17.5t-19 -8t-25.5 8q-40 30 -83 43.5t-95 13.5q-53 0 -91.5 -16t-60 -46.5t-21.5 -70.5q0 -48 29.5 -76t96.5 -41l104 -22q101 -21 149.5 -63.5t48.5 -115.5q0 -44 -18 -81t-52 -63.5t-82 -40.5t-108 -14zM319 -192
q-18 0 -37.5 2.5t-35.5 9.5q-11 4 -15 13t-1 18t11 13.5t20 -0.5t25.5 -7t30.5 -2q26 0 42 9.5t16 27.5q0 13 -9 20.5t-29 7.5q-8 0 -15.5 -1t-17.5 -3q-9 -3 -14 -3t-10 3q-4 4 -4.5 9.5t0.5 15.5l12 79h51l-13 -75l-24 6q12 3 23.5 5t21.5 2q36 0 60 -18t24 -50
q0 -37 -31 -59.5t-81 -22.5z" />
    <glyph glyph-name="scedilla" unicode="&#x15f;" horiz-adv-x="481" 
d="M240 -9q-45 0 -90.5 11t-84.5 38q-10 7 -14 16.5t-2.5 19t8 16.5t16 8.5t21.5 -4.5q39 -24 75.5 -33.5t72.5 -9.5q57 0 86 21t29 57q0 28 -19 44.5t-60 25.5l-91 20q-63 13 -93.5 45t-30.5 83q0 45 23.5 77.5t66.5 50.5t100 18q44 0 83.5 -11.5t71.5 -36.5
q10 -7 13.5 -16.5t1 -19t-9.5 -16t-17 -7.5t-21 6q-30 20 -61 29.5t-61 9.5q-56 0 -85 -22t-29 -58q0 -28 18 -46t56 -26l91 -19q65 -14 97.5 -44.5t32.5 -82.5q0 -66 -53 -105t-141 -39zM243 -192q-18 0 -37.5 2.5t-35.5 9.5q-11 4 -15 13t-1 18t11 13.5t20 -0.5t25.5 -7
t30.5 -2q26 0 42 9.5t16 27.5q0 13 -9 20.5t-29 7.5q-8 0 -15.5 -1t-17.5 -3q-9 -3 -14 -3t-10 3q-4 4 -4.5 9.5t0.5 15.5l12 79h51l-13 -75l-24 6q12 3 23.5 5t21.5 2q36 0 60 -18t24 -50q0 -37 -31 -59.5t-81 -22.5z" />
    <glyph glyph-name="Scaron" unicode="&#x160;" horiz-adv-x="615" 
d="M315 -9q-47 0 -92 8t-83.5 23t-69.5 38q-12 9 -16.5 20.5t-2 23t10 19.5t18.5 9t24 -7q45 -32 96 -46.5t115 -14.5q90 0 133.5 33.5t43.5 88.5q0 45 -31.5 70.5t-105.5 40.5l-104 21q-94 20 -140.5 65.5t-46.5 121.5q0 47 19 85.5t53 66t81 42.5t104 15q63 0 117.5 -17.5
t98.5 -52.5q11 -9 15 -20.5t1 -22t-10.5 -17.5t-19 -8t-25.5 8q-40 30 -83 43.5t-95 13.5q-53 0 -91.5 -16t-60 -46.5t-21.5 -70.5q0 -48 29.5 -76t96.5 -41l104 -22q101 -21 149.5 -63.5t48.5 -115.5q0 -44 -18 -81t-52 -63.5t-82 -40.5t-108 -14zM314 756q-15 0 -28 6.5
t-23 20.5l-88 124q-7 10 -5 19.5t10 14.5t18.5 3.5t19.5 -11.5l96 -115l97 115q8 10 18.5 11.5t18.5 -3.5t10 -14.5t-5 -19.5l-87 -124q-11 -14 -23.5 -20.5t-28.5 -6.5z" />
    <glyph glyph-name="scaron" unicode="&#x161;" horiz-adv-x="481" 
d="M240 -9q-45 0 -90.5 11t-84.5 38q-10 7 -14 16.5t-2.5 19t8 16.5t16 8.5t21.5 -4.5q39 -24 75.5 -33.5t72.5 -9.5q57 0 86 21t29 57q0 28 -19 44.5t-60 25.5l-91 20q-63 13 -93.5 45t-30.5 83q0 45 23.5 77.5t66.5 50.5t100 18q44 0 83.5 -11.5t71.5 -36.5
q10 -7 13.5 -16.5t1 -19t-9.5 -16t-17 -7.5t-21 6q-30 20 -61 29.5t-61 9.5q-56 0 -85 -22t-29 -58q0 -28 18 -46t56 -26l91 -19q65 -14 97.5 -44.5t32.5 -82.5q0 -66 -53 -105t-141 -39zM249 538q-16 0 -28 8.5t-21 24.5l-83 151q-6 12 -2.5 21.5t12 14t18 2.5t15.5 -12
l89 -143l89 143q6 10 15.5 12t18 -2.5t12 -14t-2.5 -21.5l-83 -151q-9 -16 -21 -24.5t-28 -8.5z" />
    <glyph glyph-name="uni0162" unicode="&#x162;" horiz-adv-x="602" 
d="M301 -7q-19 0 -30 11.5t-11 31.5v598h-225q-18 0 -28 10t-10 26q0 17 10 26t28 9h533q18 0 28 -9t10 -26t-10 -26.5t-28 -9.5h-225v-598q0 -20 -10.5 -31.5t-31.5 -11.5zM304 -192q-18 0 -37.5 2.5t-35.5 9.5q-11 4 -15 13t-1 18t11 13.5t20 -0.5t25.5 -7t30.5 -2
q26 0 42 9.5t16 27.5q0 13 -9 20.5t-29 7.5q-8 0 -15.5 -1t-17.5 -3q-9 -3 -14 -3t-10 3q-4 4 -4.5 9.5t0.5 15.5l12 79h51l-13 -75l-24 6q12 3 23.5 5t21.5 2q36 0 60 -18t24 -50q0 -37 -31 -59.5t-81 -22.5z" />
    <glyph glyph-name="uni0163" unicode="&#x163;" horiz-adv-x="350" 
d="M271 -9q-57 0 -95.5 20.5t-57.5 60t-19 96.5v255h-67q-17 0 -26 8.5t-9 23.5t9 23t26 8h67v115q0 20 11 30.5t30 10.5t29.5 -10.5t10.5 -30.5v-115h126q17 0 26 -8t9 -23t-9 -23.5t-26 -8.5h-126v-247q0 -57 24 -86.5t78 -29.5q19 0 32.5 4t22.5 4q9 1 15 -6t6 -24
q0 -12 -4.5 -22t-15.5 -14q-12 -4 -31.5 -7.5t-35.5 -3.5zM219 -192q-18 0 -37.5 2.5t-35.5 9.5q-11 4 -15 13t-1 18t11 13.5t20 -0.5t25.5 -7t30.5 -2q26 0 42 9.5t16 27.5q0 13 -9 20.5t-29 7.5q-8 0 -15.5 -1t-17.5 -3q-9 -3 -14 -3t-10 3q-4 4 -4.5 9.5t0.5 15.5l12 79
h51l-13 -75l-24 6q12 3 23.5 5t21.5 2q36 0 60 -18t24 -50q0 -37 -31 -59.5t-81 -22.5z" />
    <glyph glyph-name="Tcaron" unicode="&#x164;" horiz-adv-x="602" 
d="M301 -7q-19 0 -30 11.5t-11 31.5v598h-225q-18 0 -28 10t-10 26q0 17 10 26t28 9h533q18 0 28 -9t10 -26t-10 -26.5t-28 -9.5h-225v-598q0 -20 -10.5 -31.5t-31.5 -11.5zM301 756q-15 0 -28 6.5t-23 20.5l-88 124q-7 10 -5 19.5t10 14.5t18.5 3.5t19.5 -11.5l96 -115
l97 115q8 10 18.5 11.5t18.5 -3.5t10 -14.5t-5 -19.5l-87 -124q-11 -14 -23.5 -20.5t-28.5 -6.5z" />
    <glyph glyph-name="tcaron" unicode="&#x165;" horiz-adv-x="350" 
d="M271 -9q-57 0 -95.5 20.5t-57.5 60t-19 96.5v255h-67q-17 0 -26 8.5t-9 23.5t9 23t26 8h67v115q0 20 11 30.5t30 10.5t29.5 -10.5t10.5 -30.5v-115h126q17 0 26 -8t9 -23t-9 -23.5t-26 -8.5h-126v-247q0 -57 24 -86.5t78 -29.5q19 0 32.5 4t22.5 4q9 1 15 -6t6 -24
q0 -12 -4.5 -22t-15.5 -14q-12 -4 -31.5 -7.5t-35.5 -3.5zM269 526q-9 0 -15 5.5t-6 16.5v131q0 33 33 33q15 0 23 -9t6 -26l-18 -131q-2 -10 -7.5 -15t-15.5 -5z" />
    <glyph glyph-name="Tbar" unicode="&#x166;" horiz-adv-x="602" 
d="M301 -7q-19 0 -30 11.5t-11 31.5v598h-225q-18 0 -28 10t-10 26q0 17 10 26t28 9h533q18 0 28 -9t10 -26t-10 -26.5t-28 -9.5h-225v-598q0 -20 -10.5 -31.5t-31.5 -11.5zM143 326q-16 0 -24.5 8.5t-8.5 23.5t8.5 23.5t24.5 8.5h315q16 0 24.5 -8t8.5 -24
q0 -15 -8.5 -23.5t-24.5 -8.5h-315z" />
    <glyph glyph-name="tbar" unicode="&#x167;" horiz-adv-x="350" 
d="M271 -9q-57 0 -95.5 20.5t-57.5 60t-19 96.5v255h-67q-17 0 -26 8.5t-9 23.5t9 23t26 8h67v115q0 20 11 30.5t30 10.5t29.5 -10.5t10.5 -30.5v-115h126q17 0 26 -8t9 -23t-9 -23.5t-26 -8.5h-126v-247q0 -57 24 -86.5t78 -29.5q19 0 32.5 4t22.5 4q9 1 15 -6t6 -24
q0 -12 -4.5 -22t-15.5 -14q-12 -4 -31.5 -7.5t-35.5 -3.5zM50 239q-14 0 -22 7.5t-8 19.5q0 13 8 20.5t22 7.5h230q30 0 30 -28q0 -12 -8 -19.5t-22 -7.5h-230z" />
    <glyph glyph-name="Utilde" unicode="&#x168;" horiz-adv-x="728" 
d="M365 -9q-70 0 -122.5 18.5t-88.5 55t-54 90.5t-18 124v391q0 21 10.5 31.5t30.5 10.5t30.5 -10.5t10.5 -31.5v-387q0 -110 51 -164.5t150 -54.5t149 54.5t50 164.5v387q0 21 11 31.5t31 10.5q19 0 29.5 -10.5t10.5 -31.5v-391q0 -93 -31.5 -158t-94.5 -97.5t-155 -32.5z
M181 780q-11 0 -17.5 7.5t-4.5 20.5q10 53 41.5 82t75.5 29q27 0 51 -11.5t46.5 -26.5t43 -26.5t40.5 -11.5q27 0 44 17t22 45q3 11 9.5 16t16.5 4q11 0 18 -7.5t4 -20.5q-10 -53 -40.5 -82t-75.5 -29q-27 0 -51.5 11.5t-46.5 26t-43 26.5t-41 12q-26 0 -43.5 -17t-22.5 -45
q-3 -10 -9.5 -15.5t-16.5 -4.5z" />
    <glyph glyph-name="utilde" unicode="&#x169;" horiz-adv-x="561" 
d="M248 -9q-59 0 -97.5 21.5t-58 64.5t-19.5 107v268q0 21 10.5 31t29.5 10q20 0 30.5 -10t10.5 -31v-267q0 -64 26.5 -95.5t83.5 -31.5q62 0 101 42t39 110v242q0 21 10.5 31t30.5 10q19 0 29.5 -10t10.5 -31v-417q0 -42 -39 -42q-19 0 -29.5 11t-10.5 31v91l13 -14
q-20 -59 -65.5 -90t-105.5 -31zM124 588q-10 0 -16.5 7t-3.5 21q4 24 12 44t21 35t30.5 23.5t40.5 8.5q25 0 43.5 -11.5t35 -26t32.5 -26.5t34 -12q23 0 38.5 17.5t20.5 46.5q2 10 8.5 14.5t17.5 3.5q10 0 16.5 -7t3.5 -21q-5 -31 -18.5 -56t-34.5 -40t-51 -15
q-25 0 -43.5 11.5t-35 26.5t-32.5 26.5t-34 11.5q-23 0 -38 -17t-21 -47q-2 -9 -8.5 -14t-17.5 -4z" />
    <glyph glyph-name="Umacron" unicode="&#x16a;" horiz-adv-x="728" 
d="M365 -9q-70 0 -122.5 18.5t-88.5 55t-54 90.5t-18 124v391q0 21 10.5 31.5t30.5 10.5t30.5 -10.5t10.5 -31.5v-387q0 -110 51 -164.5t150 -54.5t149 54.5t50 164.5v387q0 21 11 31.5t31 10.5q19 0 29.5 -10.5t10.5 -31.5v-391q0 -93 -31.5 -158t-94.5 -97.5t-155 -32.5z
M229 814q-29 0 -29 28q0 13 7.5 20t21.5 7h272q30 0 30 -27q0 -13 -7.5 -20.5t-22.5 -7.5h-272z" />
    <glyph glyph-name="umacron" unicode="&#x16b;" horiz-adv-x="561" 
d="M248 -9q-59 0 -97.5 21.5t-58 64.5t-19.5 107v268q0 21 10.5 31t29.5 10q20 0 30.5 -10t10.5 -31v-267q0 -64 26.5 -95.5t83.5 -31.5q62 0 101 42t39 110v242q0 21 10.5 31t30.5 10q19 0 29.5 -10t10.5 -31v-417q0 -42 -39 -42q-19 0 -29.5 11t-10.5 31v91l13 -14
q-20 -59 -65.5 -90t-105.5 -31zM160 626q-29 0 -29 27q0 14 7.5 21t21.5 7h242q30 0 30 -28q0 -12 -7.5 -19.5t-22.5 -7.5h-242z" />
    <glyph glyph-name="Ubreve" unicode="&#x16c;" horiz-adv-x="728" 
d="M365 -9q-70 0 -122.5 18.5t-88.5 55t-54 90.5t-18 124v391q0 21 10.5 31.5t30.5 10.5t30.5 -10.5t10.5 -31.5v-387q0 -110 51 -164.5t150 -54.5t149 54.5t50 164.5v387q0 21 11 31.5t31 10.5q19 0 29.5 -10.5t10.5 -31.5v-391q0 -93 -31.5 -158t-94.5 -97.5t-155 -32.5z
M365 760q-59 0 -104.5 35.5t-61.5 108.5q-3 14 4 23t18 9q8 1 14.5 -2t10 -8t4.5 -12q11 -55 44 -77.5t71 -22.5q39 0 72 22.5t43 77.5q1 7 4.5 12t10 8t14.5 2q11 0 18 -9t4 -23q-15 -73 -61 -108.5t-105 -35.5z" />
    <glyph glyph-name="ubreve" unicode="&#x16d;" horiz-adv-x="561" 
d="M248 -9q-59 0 -97.5 21.5t-58 64.5t-19.5 107v268q0 21 10.5 31t29.5 10q20 0 30.5 -10t10.5 -31v-267q0 -64 26.5 -95.5t83.5 -31.5q62 0 101 42t39 110v242q0 21 10.5 31t30.5 10q19 0 29.5 -10t10.5 -31v-417q0 -42 -39 -42q-19 0 -29.5 11t-10.5 31v91l13 -14
q-20 -59 -65.5 -90t-105.5 -31zM281 550q-43 0 -75 20t-51.5 57.5t-25.5 87.5q-2 14 5 23t19 9q11 1 18 -6t9 -20q8 -58 34.5 -87t66.5 -29t67.5 29t33.5 87q2 13 9.5 20t17.5 6q12 0 19 -9t5 -23q-5 -50 -25 -87.5t-52 -57.5t-75 -20z" />
    <glyph glyph-name="Uring" unicode="&#x16e;" horiz-adv-x="728" 
d="M365 -9q-70 0 -122.5 18.5t-88.5 55t-54 90.5t-18 124v391q0 21 10.5 31.5t30.5 10.5t30.5 -10.5t10.5 -31.5v-387q0 -110 51 -164.5t150 -54.5t149 54.5t50 164.5v387q0 21 11 31.5t31 10.5q19 0 29.5 -10.5t10.5 -31.5v-391q0 -93 -31.5 -158t-94.5 -97.5t-155 -32.5z
M365 758q-33 0 -60 15.5t-43 42t-16 58.5q0 33 16 58.5t43 41t60 15.5q34 0 60.5 -15.5t42.5 -41t16 -58.5q0 -32 -16 -58.5t-42.5 -42t-60.5 -15.5zM365 801q32 0 52 21t20 52q0 30 -20 51t-52 21q-31 0 -51.5 -21t-20.5 -51q0 -31 20.5 -52t51.5 -21z" />
    <glyph glyph-name="uring" unicode="&#x16f;" horiz-adv-x="561" 
d="M248 -9q-59 0 -97.5 21.5t-58 64.5t-19.5 107v268q0 21 10.5 31t29.5 10q20 0 30.5 -10t10.5 -31v-267q0 -64 26.5 -95.5t83.5 -31.5q62 0 101 42t39 110v242q0 21 10.5 31t30.5 10q19 0 29.5 -10t10.5 -31v-417q0 -42 -39 -42q-19 0 -29.5 11t-10.5 31v91l13 -14
q-20 -59 -65.5 -90t-105.5 -31zM281 548q-33 0 -60 15.5t-43 42t-16 58.5q0 33 16 58.5t43 41t60 15.5q34 0 60.5 -15.5t42.5 -41t16 -58.5q0 -32 -16 -58.5t-42.5 -42t-60.5 -15.5zM281 591q32 0 52 21t20 52q0 30 -20 51t-52 21q-31 0 -51.5 -21t-20.5 -51q0 -31 20.5 -52
t51.5 -21z" />
    <glyph glyph-name="Uhungarumlaut" unicode="&#x170;" horiz-adv-x="728" 
d="M365 -9q-70 0 -122.5 18.5t-88.5 55t-54 90.5t-18 124v391q0 21 10.5 31.5t30.5 10.5t30.5 -10.5t10.5 -31.5v-387q0 -110 51 -164.5t150 -54.5t149 54.5t50 164.5v387q0 21 11 31.5t31 10.5q19 0 29.5 -10.5t10.5 -31.5v-391q0 -93 -31.5 -158t-94.5 -97.5t-155 -32.5z
M329 769q-7 -9 -15.5 -11t-16 1.5t-10 11.5t2.5 18l68 136q6 13 16.5 17.5t21 2t17.5 -9.5t8.5 -17.5t-7.5 -22.5zM454 768q-7 -9 -15 -10.5t-15 2.5t-9 12t3 18l70 135q7 14 17.5 18t20.5 1.5t17 -9.5t8 -17.5t-8 -22.5z" />
    <glyph glyph-name="uhungarumlaut" unicode="&#x171;" horiz-adv-x="561" 
d="M248 -9q-59 0 -97.5 21.5t-58 64.5t-19.5 107v268q0 21 10.5 31t29.5 10q20 0 30.5 -10t10.5 -31v-267q0 -64 26.5 -95.5t83.5 -31.5q62 0 101 42t39 110v242q0 21 10.5 31t30.5 10q19 0 29.5 -10t10.5 -31v-417q0 -42 -39 -42q-19 0 -29.5 11t-10.5 31v91l13 -14
q-20 -59 -65.5 -90t-105.5 -31zM370 559q-4 -9 -12 -12.5t-16.5 -1t-13.5 9.5t-2 17l45 165q4 15 13.5 22t20.5 7.5t20.5 -5t13.5 -15.5t-2 -24zM242 559q-4 -9 -12 -12.5t-16.5 -1t-13 9.5t-1.5 17l45 165q3 15 13 22t21 7.5t20.5 -5.5t13 -15.5t-2.5 -23.5z" />
    <glyph glyph-name="Uogonek" unicode="&#x172;" horiz-adv-x="728" 
d="M365 -9q-70 0 -122.5 18.5t-88.5 55t-54 90.5t-18 124v391q0 21 10.5 31.5t30.5 10.5t30.5 -10.5t10.5 -31.5v-387q0 -110 51 -164.5t150 -54.5t149 54.5t50 164.5v387q0 21 11 31.5t31 10.5q19 0 29.5 -10.5t10.5 -31.5v-391q0 -93 -31.5 -158t-94.5 -97.5t-155 -32.5z
M403 -192q-47 0 -76 26t-29 71q0 40 25.5 75.5t69.5 55.5l29 -36q-15 -6 -30.5 -18.5t-25.5 -29.5t-10 -38q0 -28 16.5 -42t41.5 -14q9 0 17.5 1.5t17.5 4.5q13 4 21 -1t9.5 -14.5t-2.5 -18.5t-15 -13q-15 -6 -30 -7.5t-29 -1.5z" />
    <glyph glyph-name="uogonek" unicode="&#x173;" horiz-adv-x="561" 
d="M406 126l13 -14q-20 -59 -65.5 -90t-105.5 -31q-59 0 -97.5 21.5t-58 64.5t-19.5 107v268q0 20 10.5 30.5t29.5 10.5q20 0 30.5 -10.5t10.5 -30.5v-267q0 -64 26.5 -95.5t83.5 -31.5q62 0 101 42t39 110v242q0 20 10.5 30.5t30.5 10.5q19 0 29.5 -10.5t10.5 -30.5v-417
q0 -17 -6.5 -26.5t-18.5 -14.5q-22 -12 -39.5 -32t-17.5 -48t16.5 -42t41.5 -14q9 0 17.5 1.5t16.5 4.5q14 4 21.5 -1t9.5 -14.5t-2 -18.5t-15 -13q-15 -6 -30 -7.5t-29 -1.5q-48 0 -76.5 26t-28.5 71q0 36 21 68.5t58 53.5l-10 -20q-4 6 -6 13t-2 16v90z" />
    <glyph glyph-name="Wcircumflex" unicode="&#x174;" horiz-adv-x="1101" 
d="M313 -7q-18 0 -29 9.5t-18 28.5l-221 631q-7 21 3.5 35.5t33.5 14.5q17 0 27 -8.5t17 -26.5l207 -607h-35l211 604q7 19 17 28.5t27 9.5q16 0 25.5 -9.5t16.5 -28.5l208 -604h-31l209 607q5 17 15.5 26t27.5 9q21 0 31 -14t2 -36l-222 -631q-7 -19 -17.5 -28.5
t-29.5 -9.5q-18 0 -28.5 9.5t-18.5 28.5l-201 579h22l-203 -579q-7 -19 -17 -28.5t-29 -9.5zM455 768q-9 -9 -19.5 -10t-18.5 4t-10 14t5 19l88 123q10 15 23 21.5t28 6.5q16 0 28.5 -6.5t23.5 -21.5l87 -123q8 -10 6 -19t-10.5 -14t-19 -4t-18.5 10l-97 116z" />
    <glyph glyph-name="wcircumflex" unicode="&#x175;" horiz-adv-x="841" 
d="M244 -7q-17 0 -30 9t-21 29l-149 405q-6 17 -3.5 30t12.5 20t25 7t24.5 -7t15.5 -26l140 -400h-24l144 400q7 18 17.5 25.5t27.5 7.5q16 0 27 -8t17 -25l141 -400h-23l142 402q7 18 17 24.5t24 6.5q16 0 24.5 -8t9.5 -21t-5 -28l-149 -405q-7 -19 -20.5 -28.5t-30.5 -9.5
t-30 9.5t-20 28.5l-148 406h43l-147 -406q-7 -19 -20 -28.5t-31 -9.5zM553 582q6 -12 2.5 -21.5t-12 -13.5t-18 -2.5t-15.5 11.5l-89 143l-89 -143q-6 -10 -15.5 -11.5t-18 2.5t-12 13.5t2.5 21.5l83 152q9 16 21 24t28 8t28 -8t21 -24z" />
    <glyph glyph-name="Ycircumflex" unicode="&#x176;" horiz-adv-x="596" 
d="M298 -7q-20 0 -30.5 11.5t-10.5 32.5v328l18 -57l-251 346q-9 13 -8.5 26.5t10.5 22.5t26 9q14 0 25 -6.5t20 -20.5l213 -294h-21l213 294q11 15 21 21t24 6q16 0 25 -8.5t9.5 -22t-9.5 -28.5l-250 -345l17 57v-328q0 -44 -41 -44zM202 768q-9 -9 -19.5 -10t-18.5 4
t-10 14t5 19l88 123q10 15 23 21.5t28 6.5q16 0 28.5 -6.5t23.5 -21.5l87 -123q8 -10 6 -19t-10.5 -14t-19 -4t-18.5 10l-97 116z" />
    <glyph glyph-name="ycircumflex" unicode="&#x177;" horiz-adv-x="514" 
d="M184 -187q-15 0 -24 8t-10.5 21.5t4.5 27.5l69 155v-35l-192 446q-6 15 -4 28t12 21t28 8q16 0 25 -7t16 -25l164 -402h-27l166 402q8 18 17 25t26 7q16 0 24.5 -8t10 -20.5t-4.5 -27.5l-256 -592q-8 -18 -17.5 -25t-26.5 -7zM390 582q6 -12 2.5 -21.5t-12 -13.5
t-18 -2.5t-15.5 11.5l-89 143l-89 -143q-6 -10 -15.5 -11.5t-18 2.5t-12 13.5t2.5 21.5l83 152q9 16 21 24t28 8t28 -8t21 -24z" />
    <glyph glyph-name="Ydieresis" unicode="&#x178;" horiz-adv-x="596" 
d="M298 -7q-20 0 -30.5 11.5t-10.5 32.5v328l18 -57l-251 346q-9 13 -8.5 26.5t10.5 22.5t26 9q14 0 25 -6.5t20 -20.5l213 -294h-21l213 294q11 15 21 21t24 6q16 0 25 -8.5t9.5 -22t-9.5 -28.5l-250 -345l17 57v-328q0 -44 -41 -44zM386 802q-23 0 -35.5 12t-12.5 35
q0 22 12.5 34t35.5 12q22 0 34 -12t12 -34q0 -23 -12 -35t-34 -12zM211 802q-22 0 -34.5 12t-12.5 35q0 22 12.5 34t34.5 12q23 0 35 -12t12 -34q0 -23 -12 -35t-35 -12z" />
    <glyph glyph-name="Zacute" unicode="&#x179;" horiz-adv-x="589" 
d="M86 0q-16 0 -26 6.5t-14 18t-0.5 26t15.5 29.5l416 586v-32h-397q-19 0 -29 9.5t-10 26.5t10 26t29 9h434q16 0 26.5 -6.5t14 -17.5t0 -26t-14.5 -30l-416 -585v31h411q19 0 29 -9t10 -26q0 -18 -10 -27t-29 -9h-449zM341 769q-8 -9 -18.5 -9.5t-18.5 5t-10.5 14.5
t4.5 20l89 129q9 13 20 16t22 -0.5t17.5 -11.5t7 -18.5t-8.5 -21.5z" />
    <glyph glyph-name="zacute" unicode="&#x17a;" horiz-adv-x="463" 
d="M85 0q-13 0 -21 6t-11 16t0 22t13 23l282 377v-21h-267q-16 0 -24.5 8.5t-8.5 23.5t8.5 23t24.5 8h307q15 0 24.5 -6t12.5 -15.5t0.5 -21t-11.5 -22.5l-287 -381v23h281q33 0 33 -31q0 -15 -8.5 -23.5t-24.5 -8.5h-323zM272 556q-7 -10 -17 -11.5t-19 3t-13 13.5t2 21
l84 163q7 14 18 18t22.5 1.5t19.5 -10.5t9.5 -19t-6.5 -23z" />
    <glyph glyph-name="Zdotaccent" unicode="&#x17b;" horiz-adv-x="589" 
d="M86 0q-16 0 -26 6.5t-14 18t-0.5 26t15.5 29.5l416 586v-32h-397q-19 0 -29 9.5t-10 26.5t10 26t29 9h434q16 0 26.5 -6.5t14 -17.5t0 -26t-14.5 -30l-416 -585v31h411q19 0 29 -9t10 -26q0 -18 -10 -27t-29 -9h-449zM306 803q-23 0 -36 12.5t-13 35.5t13 35t36 12
q24 0 36.5 -12t12.5 -35t-12.5 -35.5t-36.5 -12.5z" />
    <glyph glyph-name="zdotaccent" unicode="&#x17c;" horiz-adv-x="463" 
d="M85 0q-13 0 -21 6t-11 16t0 22t13 23l282 377v-21h-267q-16 0 -24.5 8.5t-8.5 23.5t8.5 23t24.5 8h307q15 0 24.5 -6t12.5 -15.5t0.5 -21t-11.5 -22.5l-287 -381v23h281q33 0 33 -31q0 -15 -8.5 -23.5t-24.5 -8.5h-323zM239 605q-23 0 -36 13t-13 35q0 23 13 35.5
t36 12.5q24 0 37 -12.5t13 -35.5t-13 -35.5t-37 -12.5z" />
    <glyph glyph-name="Zcaron" unicode="&#x17d;" horiz-adv-x="589" 
d="M86 0q-16 0 -26 6.5t-14 18t-0.5 26t15.5 29.5l416 586v-32h-397q-19 0 -29 9.5t-10 26.5t10 26t29 9h434q16 0 26.5 -6.5t14 -17.5t0 -26t-14.5 -30l-416 -585v31h411q19 0 29 -9t10 -26q0 -18 -10 -27t-29 -9h-449zM306 756q-15 0 -28 6.5t-23 20.5l-88 124
q-7 10 -5 19.5t10 14.5t18.5 3.5t19.5 -11.5l96 -115l97 115q8 10 18.5 11.5t18.5 -3.5t10 -14.5t-5 -19.5l-87 -124q-11 -14 -23.5 -20.5t-28.5 -6.5z" />
    <glyph glyph-name="zcaron" unicode="&#x17e;" horiz-adv-x="463" 
d="M85 0q-13 0 -21 6t-11 16t0 22t13 23l282 377v-21h-267q-16 0 -24.5 8.5t-8.5 23.5t8.5 23t24.5 8h307q15 0 24.5 -6t12.5 -15.5t0.5 -21t-11.5 -22.5l-287 -381v23h281q33 0 33 -31q0 -15 -8.5 -23.5t-24.5 -8.5h-323zM239 538q-16 0 -28 8.5t-21 24.5l-83 151
q-6 12 -2.5 21.5t12 14t18 2.5t15.5 -12l89 -143l89 143q6 10 15.5 12t18 -2.5t12 -14t-2.5 -21.5l-83 -151q-9 -16 -21 -24.5t-28 -8.5z" />
    <glyph glyph-name="uni0181" unicode="&#x181;" horiz-adv-x="800" 
d="M256 0q-22 0 -33.5 11.5t-11.5 33.5v597h-32q-55 0 -82 -26t-27 -80v-20q0 -9 -3.5 -17t-11.5 -13t-19 -5q-12 0 -20 5t-12 13.5t-4 17.5v23q0 81 46.5 123t141.5 42h305q73 0 123.5 -21.5t77.5 -62.5t27 -100q0 -66 -38.5 -110t-104.5 -58v14q75 -9 117.5 -54t42.5 -119
q0 -94 -61 -144t-172 -50h-249zM291 66h206q80 0 120 32t40 97q0 66 -40 97.5t-120 31.5h-206v-258zM291 390h190q78 0 118.5 32t40.5 92q0 62 -40.5 93.5t-118.5 31.5h-190v-249z" />
    <glyph glyph-name="uni018A" unicode="&#x18a;" horiz-adv-x="867" 
d="M256 0q-22 0 -33.5 11.5t-11.5 33.5v597h-32q-55 0 -82 -26t-27 -80v-20q0 -9 -3.5 -17t-11.5 -13t-19 -5q-12 0 -20 5t-12 13.5t-4 17.5v23q0 81 45.5 123t134.5 42h269q171 0 264 -90t93 -262q0 -86 -23.5 -151.5t-69.5 -110.5t-112 -68t-152 -23h-193zM294 70h149
q70 0 121.5 18t86 53t51.5 88.5t17 123.5q0 141 -69 211.5t-207 70.5h-149v-565z" />
    <glyph glyph-name="uni018F" unicode="&#x18f;" horiz-adv-x="767" 
d="M389 -9q-81 0 -143 26t-103 74t-61.5 115t-20.5 148q0 19 7.5 27.5t23.5 8.5h552v-69h-521l23 33q0 -95 26.5 -160t80 -98t133.5 -33q74 0 126 34t80 98.5t28 157.5t-31 157t-90 97.5t-145 33.5q-63 0 -112.5 -14.5t-94.5 -47.5q-14 -8 -25.5 -7t-19 8.5t-10 18.5t1 22
t16.5 20q48 36 112.5 54.5t139.5 18.5q106 0 183 -44t119.5 -124.5t42.5 -192.5q0 -84 -22.5 -151t-64.5 -113.5t-100.5 -72t-130.5 -25.5z" />
    <glyph glyph-name="florin" unicode="&#x192;" horiz-adv-x="600" 
d="M70 -189q-15 0 -25.5 9.5t-10.5 23.5t10 23.5t24 9.5h20q45 0 72.5 23.5t39.5 81.5l95 450l17 -9h-110q-15 0 -25.5 9.5t-10.5 22.5t10.5 22t25.5 9h119l-17 -14l16 74q17 81 63 124.5t126 43.5h23q15 0 23.5 -9.5t8.5 -23.5q0 -15 -8 -25t-21 -10h-20q-47 0 -74.5 -22
t-40.5 -82l-15 -70l-12 14h110q16 0 26 -9t10 -22t-10 -22.5t-26 -9.5h-124l18 10l-97 -455q-11 -53 -35.5 -90.5t-62 -57t-89.5 -19.5h-23z" />
    <glyph glyph-name="Ohorn" unicode="&#x1a0;" horiz-adv-x="767" 
d="M383 -9q-98 0 -170.5 44.5t-112 125.5t-39.5 192q0 84 22.5 150.5t64.5 113t101.5 72t133.5 25.5q100 0 172.5 -44t112 -124.5t39.5 -191.5q0 -84 -23 -151t-65 -114t-101.5 -72.5t-134.5 -25.5zM383 64q76 0 128.5 34t80.5 99t28 156q0 137 -61.5 212.5t-175.5 75.5
q-74 0 -126.5 -34t-80.5 -98.5t-28 -155.5q0 -136 62 -212.5t173 -76.5zM488 655l-49 54q26 -2 45.5 -3t38.5 -1q42 0 65.5 12t33.5 34.5t10 55.5q0 16 9 25.5t27 9.5t27 -9.5t9 -27.5q0 -44 -17.5 -78t-49.5 -53t-76 -19h-73z" />
    <glyph glyph-name="ohorn" unicode="&#x1a1;" horiz-adv-x="556" 
d="M278 -9q-71 0 -123 31t-80.5 87.5t-28.5 133.5q0 58 16 104.5t47 79.5t73.5 50.5t95.5 17.5q71 0 123 -31t80.5 -87.5t28.5 -133.5q0 -58 -16 -104t-47 -79.5t-73.5 -51t-95.5 -17.5zM278 56q45 0 79 22t52.5 64t18.5 101q0 91 -40.5 139t-109.5 48q-46 0 -79.5 -21.5
t-52 -63t-18.5 -102.5q0 -90 41 -138.5t109 -48.5zM372 436l-42 28v22q33 0 54 7t33.5 20t17.5 32t5 44q0 32 36 32q18 0 27 -8t9 -24q0 -69 -36.5 -108.5t-103.5 -44.5z" />
    <glyph glyph-name="Uhorn" unicode="&#x1af;" horiz-adv-x="728" 
d="M365 -9q-70 0 -122.5 18.5t-88.5 55t-54 90.5t-18 124v391q0 21 10.5 31.5t30.5 10.5t30.5 -10.5t10.5 -31.5v-387q0 -110 51 -164.5t150 -54.5t149 54.5t50 164.5v387q0 21 11 31.5t31 10.5q19 0 29.5 -10.5t10.5 -31.5v-391q0 -93 -31.5 -158t-94.5 -97.5t-155 -32.5z
M622 655l-41 28v22q42 1 66 12t33.5 34.5t9.5 58.5q0 16 9.5 24t27.5 8q17 0 26.5 -7.5t9.5 -24.5q0 -47 -16.5 -80.5t-48 -52.5t-76.5 -22z" />
    <glyph glyph-name="uhorn" unicode="&#x1b0;" horiz-adv-x="561" 
d="M248 -9q-59 0 -97.5 21.5t-58 64.5t-19.5 107v268q0 20 10.5 30.5t29.5 10.5q20 0 30.5 -10.5t10.5 -30.5v-267q0 -64 26.5 -95.5t83.5 -31.5q62 0 101 42t39 110v237q0 20 10.5 29t30.5 12q31 3 49.5 14.5t27 32.5t8.5 54q0 32 36 32q18 0 27 -8t9 -24q0 -62 -30 -101
t-87 -49v-404q0 -42 -39 -42q-19 0 -29.5 11t-10.5 31v91l13 -14q-20 -59 -65.5 -90t-105.5 -31z" />
    <glyph glyph-name="uni01B3" unicode="&#x1b3;" horiz-adv-x="613" 
d="M298 -7q-20 0 -30.5 11.5t-10.5 33.5v327l18 -57l-251 346q-9 13 -8 26.5t10.5 22.5t25.5 9q12 0 19.5 -2.5t13.5 -9t15 -18.5l210 -291h-20l169 242q19 27 41.5 45t49 26.5t56.5 8.5q31 0 48.5 -7t17.5 -30q0 -9 -3.5 -15.5t-9.5 -9.5t-14 -3q-5 1 -13.5 1.5t-13.5 0.5
q-24 0 -48 -11.5t-44 -38.5l-204 -292l17 57v-327q0 -45 -41 -45z" />
    <glyph glyph-name="uni01B4" unicode="&#x1b4;" horiz-adv-x="551" 
d="M184 -187q-15 0 -24 8.5t-10.5 21.5t5.5 28l68 154v-35l-192 447q-7 15 -5 28t12.5 20.5t28.5 7.5q16 0 25 -7t16 -25l164 -401h-27l139 334q14 33 32.5 55.5t45.5 34t64 11.5q38 0 52 -8.5t14 -25.5q0 -15 -6.5 -24.5t-19.5 -9.5q-5 0 -12.5 1t-17.5 1
q-30 0 -50.5 -17.5t-38.5 -60.5l-219 -506q-7 -18 -17 -25t-27 -7z" />
    <glyph glyph-name="uni01C4" unicode="&#x1c4;" horiz-adv-x="1316" 
d="M132 0q-22 0 -33.5 11.5t-11.5 33.5v615q0 22 11.5 33.5t33.5 11.5h193q171 0 264 -90t93 -262q0 -86 -23.5 -151.5t-69.5 -110.5t-112 -68t-152 -23h-193zM169 70h150q70 0 121.5 18t86 53t51.5 88.5t17 123.5q0 141 -69 211.5t-207 70.5h-150v-565zM813 0
q-16 0 -26 6.5t-14 18t-0.5 26t15.5 29.5l416 586v-32h-397q-19 0 -29 9.5t-10 26.5t10 26t29 9h434q16 0 26.5 -6.5t14 -17.5t0 -26t-14.5 -30l-416 -585v31h411q19 0 29 -9t10 -26q0 -18 -10 -27t-29 -9h-449zM1033 756q-15 0 -28 6.5t-23 20.5l-88 124q-7 10 -5 19.5
t10 14.5t18.5 3.5t19.5 -11.5l96 -115l97 115q8 10 18.5 11.5t18.5 -3.5t10 -14.5t-5 -19.5l-87 -124q-11 -14 -23.5 -20.5t-28.5 -6.5z" />
    <glyph glyph-name="uni01C5" unicode="&#x1c5;" horiz-adv-x="1206" 
d="M132 0q-22 0 -33.5 11.5t-11.5 33.5v615q0 22 11.5 33.5t33.5 11.5h193q171 0 264 -90t93 -262q0 -86 -23.5 -151.5t-69.5 -110.5t-112 -68t-152 -23h-193zM169 70h150q70 0 121.5 18t86 53t51.5 88.5t17 123.5q0 141 -69 211.5t-207 70.5h-150v-565zM827 0q-13 0 -21 6
t-11 16t0 22t13 23l282 377v-21h-267q-16 0 -24.5 8.5t-8.5 23.5t8.5 23t24.5 8h307q15 0 24.5 -6t12.5 -15.5t0.5 -21t-11.5 -22.5l-287 -381v23h281q33 0 33 -31q0 -15 -8.5 -23.5t-24.5 -8.5h-323zM981 538q-16 0 -28 8.5t-21 24.5l-83 151q-6 12 -2.5 21.5t12 14t18 2.5
t15.5 -12l89 -143l89 143q6 10 15.5 12t18 -2.5t12 -14t-2.5 -21.5l-83 -151q-9 -16 -21 -24.5t-28 -8.5z" />
    <glyph glyph-name="uni01C6" unicode="&#x1c6;" horiz-adv-x="1046" 
d="M261 -9q-65 0 -113.5 31t-75 87.5t-26.5 133.5q0 78 26.5 134.5t75 87t113.5 30.5q66 0 113 -33t63 -89h-11v298q0 20 10.5 30.5t30.5 10.5q19 0 29.5 -10.5t10.5 -30.5v-636q0 -20 -10 -31t-30 -11q-19 0 -29.5 11t-10.5 31v95l11 -14q-16 -57 -63.5 -91t-113.5 -34z
M278 56q45 0 79 22t52.5 64t18.5 101q0 91 -40.5 139t-109.5 48q-46 0 -79.5 -21.5t-52 -63t-18.5 -102.5q0 -90 41 -138.5t109 -48.5zM668 0q-13 0 -21 6t-11 16t0 22t13 23l282 377v-21h-267q-16 0 -24.5 8.5t-8.5 23.5t8.5 23t24.5 8h307q15 0 24.5 -6t12.5 -15.5
t0.5 -21t-11.5 -22.5l-287 -381v23h281q33 0 33 -31q0 -15 -8.5 -23.5t-24.5 -8.5h-323zM822 538q-16 0 -28 8.5t-21 24.5l-83 151q-6 12 -2.5 21.5t12 14t18 2.5t15.5 -12l89 -143l89 143q6 10 15.5 12t18 -2.5t12 -14t-2.5 -21.5l-83 -151q-9 -16 -21 -24.5t-28 -8.5z" />
    <glyph glyph-name="uni01C7" unicode="&#x1c7;" horiz-adv-x="907" 
d="M129 0q-20 0 -31 11.5t-11 31.5v624q0 21 10.5 32t30.5 11t30.5 -11t10.5 -32v-595h328q18 0 28 -9.5t10 -26.5t-10 -26.5t-28 -9.5h-368zM611 -6q-19 -1 -29.5 10t-10.5 27q0 12 7.5 22t23.5 11l31 2q51 4 78 35.5t27 86.5v482q0 21 10.5 31.5t30.5 10.5t30.5 -10.5
t10.5 -31.5v-483q0 -57 -20 -98.5t-59.5 -64.5t-96.5 -27z" />
    <glyph glyph-name="uni01C8" unicode="&#x1c8;" horiz-adv-x="779" 
d="M129 0q-20 0 -31 11.5t-11 31.5v624q0 21 10.5 32t30.5 11t30.5 -11t10.5 -32v-595h328q18 0 28 -9.5t10 -26.5t-10 -26.5t-28 -9.5h-368zM526 -191q-15 -1 -24.5 5t-13 15.5t-2 19t8.5 16.5t19 7q55 3 81.5 29.5t26.5 83.5v467q0 20 10.5 30.5t30.5 10.5
q19 0 29.5 -10.5t10.5 -30.5v-461q0 -61 -20.5 -100.5t-59.5 -59t-97 -22.5zM662 603q-25 0 -39 13.5t-14 36.5q0 24 14 36.5t39 12.5q26 0 40 -12.5t14 -36.5q0 -23 -14 -36.5t-40 -13.5z" />
    <glyph glyph-name="uni01C9" unicode="&#x1c9;" horiz-adv-x="531" 
d="M224 -9q-72 0 -110 44t-38 126v510q0 20 10 30.5t30 10.5q19 0 30 -10.5t11 -30.5v-504q0 -54 21.5 -80.5t63.5 -26.5q9 0 16 1t14 1q11 1 15.5 -5t4.5 -24t-8 -27t-26 -12q-8 -1 -17 -2t-17 -1zM279 -191q-15 -1 -24.5 5t-13 15.5t-2 19t8.5 16.5t19 7q55 3 81.5 29.5
t26.5 83.5v467q0 20 10.5 30.5t30.5 10.5q19 0 29.5 -10.5t10.5 -30.5v-461q0 -61 -20.5 -100.5t-59.5 -59t-97 -22.5zM415 603q-25 0 -39 13.5t-14 36.5q0 24 14 36.5t39 12.5q26 0 40 -12.5t14 -36.5q0 -23 -14 -36.5t-40 -13.5z" />
    <glyph glyph-name="uni01CA" unicode="&#x1ca;" horiz-adv-x="1063" 
d="M126 -7q-19 0 -29 10.5t-10 30.5v636q0 20 10 31t26 11t23.5 -5.5t17.5 -19.5l436 -581h-24v566q0 19 10 29.5t29 10.5q18 0 27.5 -10.5t9.5 -29.5v-639q0 -19 -8.5 -29.5t-24.5 -10.5q-15 0 -24 6t-19 19l-435 581h23v-565q0 -20 -10 -30.5t-28 -10.5zM768 -6
q-19 -1 -29.5 10t-10.5 27q0 12 7.5 22t23.5 11l31 2q51 4 78 35.5t27 86.5v482q0 21 10.5 31.5t30.5 10.5t30.5 -10.5t10.5 -31.5v-483q0 -57 -20 -98.5t-59.5 -64.5t-96.5 -27z" />
    <glyph glyph-name="uni01CB" unicode="&#x1cb;" horiz-adv-x="975" 
d="M126 -7q-19 0 -29 10.5t-10 30.5v636q0 20 10 31t26 11t23.5 -5.5t17.5 -19.5l436 -581h-24v566q0 19 10 29.5t29 10.5q18 0 27.5 -10.5t9.5 -29.5v-639q0 -19 -8.5 -29.5t-24.5 -10.5q-15 0 -24 6t-19 19l-435 581h23v-565q0 -20 -10 -30.5t-28 -10.5zM723 -191
q-15 -1 -24.5 5t-13 15.5t-2 19t8.5 16.5t19 7q55 3 81.5 29.5t26.5 83.5v467q0 20 10.5 30.5t30.5 10.5q19 0 29.5 -10.5t10.5 -30.5v-461q0 -61 -20.5 -100.5t-59.5 -59t-97 -22.5zM859 603q-25 0 -39 13.5t-14 36.5q0 24 14 36.5t39 12.5q26 0 40 -12.5t14 -36.5
q0 -23 -14 -36.5t-40 -13.5z" />
    <glyph glyph-name="uni01CC" unicode="&#x1cc;" horiz-adv-x="804" 
d="M116 -7q-20 0 -30 11t-10 31v417q0 20 10 30.5t29 10.5t29.5 -10.5t10.5 -30.5v-86l-11 12q21 58 68.5 87.5t109.5 29.5q58 0 96.5 -21t57.5 -63.5t19 -107.5v-268q0 -20 -10.5 -31t-29.5 -11q-20 0 -30.5 11t-10.5 31v263q0 68 -26.5 99.5t-84.5 31.5
q-67 0 -106.5 -41.5t-39.5 -110.5v-242q0 -42 -41 -42zM551 -191q-15 -1 -24.5 5t-13 15.5t-2 19t8.5 16.5t19 7q55 3 81.5 29.5t26.5 83.5v467q0 20 10.5 30.5t30.5 10.5q19 0 29.5 -10.5t10.5 -30.5v-461q0 -61 -20.5 -100.5t-59.5 -59t-97 -22.5zM687 603q-25 0 -39 13.5
t-14 36.5q0 24 14 36.5t39 12.5q26 0 40 -12.5t14 -36.5q0 -23 -14 -36.5t-40 -13.5z" />
    <glyph glyph-name="uni01CD" unicode="&#x1cd;" horiz-adv-x="729" 
d="M72 -7q-16 0 -25.5 7.5t-11 20t5.5 28.5l275 626q9 20 21.5 28.5t27.5 8.5t27.5 -8.5t20.5 -28.5l276 -626q8 -16 6.5 -29t-10.5 -20t-25 -7q-18 0 -29 9.5t-18 27.5l-74 171l40 -21h-430l41 21l-73 -171q-9 -19 -19 -28t-26 -9zM364 609l-161 -379l-24 19h370l-22 -19
l-161 379h-2zM366 756q-15 0 -28 6.5t-23 20.5l-88 124q-7 10 -5 19.5t10 14.5t18.5 3.5t19.5 -11.5l96 -115l97 115q8 10 18.5 11.5t18.5 -3.5t10 -14.5t-5 -19.5l-87 -124q-11 -14 -23.5 -20.5t-28.5 -6.5z" />
    <glyph glyph-name="uni01CE" unicode="&#x1ce;" horiz-adv-x="530" 
d="M229 -9q-50 0 -89.5 19.5t-62.5 53.5t-23 76q0 54 27.5 85t91 44t173.5 13h45v-53h-44q-81 0 -127.5 -7.5t-65 -25.5t-18.5 -51q0 -41 28.5 -67t77.5 -26q40 0 70.5 19t48 52t17.5 76v114q0 62 -25 89.5t-82 27.5q-35 0 -70 -9t-74 -29q-14 -7 -24 -4.5t-16 10.5t-7 18.5
t4.5 20.5t17.5 16q44 22 87 32t82 10q63 0 104 -20.5t61 -62t20 -106.5v-271q0 -20 -9.5 -31t-27.5 -11q-19 0 -29 11t-10 31v78h9q-8 -38 -30.5 -65t-55.5 -42t-74 -15zM272 538q-16 0 -28 8.5t-21 24.5l-83 151q-6 12 -2.5 21.5t12 14t18 2.5t15.5 -12l89 -143l89 143
q6 10 15.5 12t18 -2.5t12 -14t-2.5 -21.5l-83 -151q-9 -16 -21 -24.5t-28 -8.5z" />
    <glyph glyph-name="uni01D4" unicode="&#x1d4;" horiz-adv-x="561" 
d="M248 -9q-59 0 -97.5 21.5t-58 64.5t-19.5 107v268q0 21 10.5 31t29.5 10q20 0 30.5 -10t10.5 -31v-267q0 -64 26.5 -95.5t83.5 -31.5q62 0 101 42t39 110v242q0 21 10.5 31t30.5 10q19 0 29.5 -10t10.5 -31v-417q0 -42 -39 -42q-19 0 -29.5 11t-10.5 31v91l13 -14
q-20 -59 -65.5 -90t-105.5 -31zM281 539q-16 0 -28 8.5t-21 24.5l-83 151q-6 12 -2.5 21.5t12 14t18 2.5t15.5 -12l89 -143l89 143q6 10 15.5 12t18 -2.5t12 -14t-2.5 -21.5l-83 -151q-9 -16 -21 -24.5t-28 -8.5z" />
    <glyph glyph-name="uni01E5" unicode="&#x1e5;" horiz-adv-x="586" 
d="M291 -189q-53 0 -103 12.5t-92 39.5q-12 7 -15.5 17t-1 19.5t9 17.5t16 9.5t19.5 -3.5q40 -26 82 -36.5t81 -10.5q50 1 82.5 19.5t47.5 54.5l10 -10h-100q-13 0 -21 8t-8 20t8 20t21 8h108l-8 -19q2 11 3 23t1 24v135h9q-15 -58 -62 -90t-114 -32q-65 0 -114 29t-76.5 81
t-27.5 119q0 50 15.5 92t44.5 73t69 47.5t89 16.5q67 0 114 -32t62 -89h-10v79q0 19 10.5 29.5t29.5 10.5q20 0 30 -10.5t10 -29.5v-418q0 -17 -1.5 -32.5t-3.5 -28.5l-5 22h53q13 0 21 -8t8 -20t-8 -20t-21 -8h-74l21 10q-19 -70 -71.5 -104.5t-137.5 -34.5zM279 102
q46 0 80 20t52.5 57.5t18.5 86.5q0 75 -40.5 119.5t-110.5 44.5q-45 0 -79.5 -20t-53 -56.5t-18.5 -87.5q0 -76 41.5 -120t109.5 -44z" />
    <glyph glyph-name="Gcaron" unicode="&#x1e6;" horiz-adv-x="726" 
d="M409 -9q-113 0 -190.5 43t-117.5 124t-40 194q0 84 22.5 151t66 113.5t106 72t141.5 25.5q63 0 122 -17.5t105 -55.5q12 -9 15 -20t-0.5 -22t-11 -18.5t-19 -8.5t-23.5 7q-41 32 -87 46.5t-102 14.5q-80 0 -135.5 -34t-84 -98t-28.5 -156q0 -140 65.5 -214t197.5 -74
q48 0 94 9.5t87 26.5l-18 -47v249h-143q-18 0 -27 9t-9 24q0 16 9 24t27 8h179q17 0 26 -9t9 -26v-261q0 -15 -5 -25t-17 -15q-42 -17 -100.5 -28.5t-113.5 -11.5zM391 756q-15 0 -28 6.5t-23 20.5l-88 124q-7 10 -5 19.5t10 14.5t18.5 3.5t19.5 -11.5l96 -115l97 115
q8 10 18.5 11.5t18.5 -3.5t10 -14.5t-5 -19.5l-87 -124q-11 -14 -23.5 -20.5t-28.5 -6.5z" />
    <glyph glyph-name="gcaron" unicode="&#x1e7;" horiz-adv-x="586" 
d="M291 -189q-53 0 -103.5 12.5t-91.5 39.5q-12 7 -15.5 17t-1.5 19.5t9 17t16.5 9.5t19.5 -3q44 -27 84 -37t79 -10q71 0 107.5 38t36.5 110v113h10q-15 -58 -63.5 -92t-113.5 -34q-67 0 -116 30.5t-75.5 85.5t-26.5 127q0 54 15 98.5t43.5 76t69 49t90.5 17.5
q66 0 114 -33.5t62 -90.5l-10 -12v93q0 20 10.5 30.5t29.5 10.5q20 0 30 -10.5t10 -30.5v-417q0 -111 -55.5 -167.5t-163.5 -56.5zM279 77q47 0 81 21.5t52.5 61.5t18.5 94q0 81 -41 128.5t-111 47.5q-46 0 -80 -21.5t-52.5 -61t-18.5 -93.5q0 -81 41 -129t110 -48zM295 538
q-16 0 -28 8.5t-21 24.5l-83 151q-6 12 -2.5 21.5t12 14t18 2.5t15.5 -12l89 -143l89 143q6 10 15.5 12t18 -2.5t12 -14t-2.5 -21.5l-83 -151q-9 -16 -21 -24.5t-28 -8.5z" />
    <glyph glyph-name="uni01E9" unicode="&#x1e9;" horiz-adv-x="500" 
d="M116 -7q-20 0 -30 11t-10 31v636q0 20 10 30.5t30 10.5q19 0 30 -10.5t11 -30.5v-401h2l205 196q14 13 24.5 20t28.5 7q16 0 25 -8.5t8.5 -21t-12.5 -26.5l-218 -207v44l237 -223q14 -14 14 -27t-9.5 -22t-24.5 -9q-18 0 -29 7.5t-27 22.5l-222 205h-2v-193
q0 -42 -41 -42zM286 756q-15 0 -28 6.5t-23 20.5l-88 124q-7 10 -5 19.5t10 14.5t18.5 3.5t19.5 -11.5l96 -115l97 115q8 10 18.5 11.5t18.5 -3.5t10 -14.5t-5 -19.5l-87 -124q-11 -14 -23.5 -20.5t-28.5 -6.5z" />
    <glyph glyph-name="uni01EA" unicode="&#x1ea;" horiz-adv-x="767" 
d="M383 -9q-98 0 -170.5 44.5t-112 125.5t-39.5 192q0 84 22.5 150.5t64.5 113t101.5 72t133.5 25.5q100 0 172.5 -44t112 -124.5t39.5 -191.5q0 -84 -23 -151t-65 -114t-101.5 -72.5t-134.5 -25.5zM383 64q76 0 128.5 34t80.5 99t28 156q0 137 -61.5 212.5t-175.5 75.5
q-74 0 -126.5 -34t-80.5 -98.5t-28 -155.5q0 -136 62 -212.5t173 -76.5zM421 -192q-47 0 -76 26t-29 71q0 40 25.5 75.5t69.5 55.5l29 -36q-15 -6 -30.5 -18.5t-25.5 -29.5t-10 -38q0 -28 16.5 -42t41.5 -14q9 0 17.5 1.5t17.5 4.5q13 4 21 -1t9.5 -14.5t-2.5 -18.5t-15 -13
q-15 -6 -30 -7.5t-29 -1.5z" />
    <glyph glyph-name="uni01EB" unicode="&#x1eb;" horiz-adv-x="556" 
d="M278 -9q-71 0 -123 31t-80.5 87.5t-28.5 133.5q0 58 16 104.5t47 79.5t73.5 50.5t95.5 17.5q71 0 123 -31t80.5 -87.5t28.5 -133.5q0 -58 -16 -104t-47 -79.5t-73.5 -51t-95.5 -17.5zM278 56q45 0 79 22t52.5 64t18.5 101q0 91 -40.5 139t-109.5 48q-46 0 -79.5 -21.5
t-52 -63t-18.5 -102.5q0 -90 41 -138.5t109 -48.5zM318 -192q-47 0 -76 26t-29 71q0 40 25.5 75.5t69.5 55.5l29 -36q-15 -6 -30.5 -18.5t-25.5 -29.5t-10 -38q0 -28 16.5 -42t41.5 -14q9 0 17.5 1.5t17.5 4.5q13 4 21 -1t9.5 -14.5t-2.5 -18.5t-15 -13q-15 -6 -30 -7.5
t-29 -1.5z" />
    <glyph glyph-name="uni01EF" unicode="&#x1ef;" horiz-adv-x="495" 
d="M228 -189q-58 0 -107.5 12.5t-87.5 36.5q-12 8 -15.5 18t-2 20.5t8.5 17.5t17 8.5t22 -6.5q33 -21 72 -31.5t86 -10.5q80 0 120.5 37t40.5 107q0 63 -39.5 97t-113.5 34h-83q-14 0 -20 7.5t-3.5 19t12.5 22.5l220 241v-20h-291q-17 0 -26.5 8.5t-9.5 24.5q0 32 36 32h339
q14 0 22.5 -6t11 -16.5t-1 -21.5t-13.5 -21l-214 -235l-19 25h61q68 0 115 -22t72.5 -64t25.5 -101q0 -66 -28.5 -114t-81 -73.5t-125.5 -25.5zM233 538q-16 0 -28 8.5t-21 24.5l-83 151q-6 12 -2.5 21.5t12 14t18 2.5t15.5 -12l89 -143l89 143q6 10 15.5 12t18 -2.5t12 -14
t-2.5 -21.5l-83 -151q-9 -16 -21 -24.5t-28 -8.5z" />
    <glyph glyph-name="Aringacute" unicode="&#x1fa;" horiz-adv-x="729" 
d="M72 -7q-16 0 -25.5 7.5t-11 20t5.5 28.5l275 626q9 20 21.5 28.5t27.5 8.5t27.5 -8.5t20.5 -28.5l276 -626q8 -16 6.5 -29t-10.5 -20t-25 -7q-18 0 -29 9.5t-18 27.5l-74 171l40 -21h-430l41 21l-73 -171q-9 -19 -19 -28t-26 -9zM364 609l-161 -379l-24 19h370l-22 -19
l-161 379h-2zM366 758q-32 0 -58.5 15t-42 41t-15.5 57q0 32 15.5 57.5t42 41t58.5 15.5q19 0 35.5 -5t30.5 -15l73 68q11 10 21.5 9t18 -8.5t8 -17.5t-10.5 -19l-77 -66q17 -26 17 -60q0 -31 -15.5 -57t-41.5 -41t-59 -15zM366 799q32 0 52 21t20 51q0 31 -20 51.5
t-52 20.5q-31 0 -51.5 -20.5t-20.5 -51.5q0 -30 20.5 -51t51.5 -21z" />
    <glyph glyph-name="aringacute" unicode="&#x1fb;" horiz-adv-x="530" 
d="M229 -9q-50 0 -89.5 19.5t-62.5 53.5t-23 76q0 54 27.5 85t91 44t173.5 13h45v-53h-44q-81 0 -127.5 -7.5t-65 -25.5t-18.5 -51q0 -41 28.5 -67t77.5 -26q40 0 70.5 19t48 52t17.5 76v114q0 62 -25 89.5t-82 27.5q-35 0 -70 -9t-74 -29q-14 -7 -24 -4.5t-16 10.5t-7 18.5
t4.5 20.5t17.5 16q44 22 87 32t82 10q63 0 104 -20.5t61 -62t20 -106.5v-271q0 -20 -9.5 -31t-27.5 -11q-19 0 -29 11t-10 31v78h9q-8 -38 -30.5 -65t-55.5 -42t-74 -15zM272 544q-32 0 -58.5 15.5t-42 41t-15.5 56.5q0 32 15.5 58t42 41t58.5 15q19 0 35.5 -5t30.5 -15
l74 69q10 10 21 8.5t18 -8.5t7.5 -17.5t-9.5 -19.5l-78 -65q17 -27 17 -61q0 -31 -15.5 -56.5t-41.5 -41t-59 -15.5zM272 586q32 0 52 20.5t20 50.5q0 32 -20 52t-52 20q-31 0 -51.5 -20t-20.5 -52q0 -30 20.5 -50.5t51.5 -20.5z" />
    <glyph glyph-name="AEacute" unicode="&#x1fc;" horiz-adv-x="981" 
d="M42 -7q-18 0 -28 7.5t-10 19.5t8 25l385 635q8 13 19 19t26 6h458q18 0 27.5 -9t9.5 -25q0 -17 -9.5 -26t-27.5 -9h-420l17 29l63 -295l-29 22h349q18 0 27.5 -8.5t9.5 -25.5t-9.5 -26t-27.5 -9h-334l20 22l64 -304l-32 28h302q18 0 27.5 -9t9.5 -25q0 -17 -9.5 -26
t-27.5 -9h-302q-33 0 -41 33l-36 171l30 -24h-390l32 22l-108 -182q-8 -13 -18 -20t-25 -7zM433 608l-225 -379l-9 20h331l-14 -22l-81 381h-2zM522 769q-8 -9 -18.5 -9.5t-18.5 5t-10.5 14.5t4.5 20l89 129q9 13 20 16t22 -0.5t17.5 -11.5t7 -18.5t-8.5 -21.5z" />
    <glyph glyph-name="aeacute" unicode="&#x1fd;" horiz-adv-x="861" 
d="M234 -9q-52 0 -92.5 19.5t-64 53.5t-23.5 76q0 54 28 85t92 44t173 13h45v-54h-45q-81 0 -127.5 -7t-65 -25t-18.5 -51q0 -41 29 -67t79 -26q41 0 72 19.5t48 54t17 78.5v108q0 62 -26.5 90t-82.5 28q-35 0 -70.5 -9t-74.5 -29q-13 -7 -23.5 -4.5t-16.5 10.5t-6.5 18.5
t4.5 20.5t18 16q43 22 86.5 32t83.5 10q73 0 115 -30t56 -91h-23q25 59 76.5 90t115.5 32q48 0 86 -16.5t65 -47t41 -74.5t14 -100v-3q0 -14 -8.5 -20.5t-25.5 -6.5h-334v54h314l-15 -13q0 52 -16 89t-46.5 57t-75.5 20q-46 0 -80.5 -22t-53 -62.5t-18.5 -97.5v-7
q0 -92 42 -141t124 -49q31 0 65.5 9t66.5 30q13 9 24.5 8.5t19 -7t10 -16t-2.5 -20.5t-17 -19q-33 -24 -77 -37t-88 -13q-85 0 -143.5 39t-79.5 115h20q-14 -71 -64 -112.5t-126 -41.5zM449 556q-7 -10 -17 -11.5t-19 3t-13 13.5t2 21l84 163q7 14 18 18t22.5 1.5
t19.5 -10.5t9.5 -19t-6.5 -23z" />
    <glyph glyph-name="Oslashacute" unicode="&#x1fe;" horiz-adv-x="767" 
d="M383 -9q-98 0 -170.5 44.5t-112 125.5t-39.5 192q0 84 22.5 150.5t64.5 113t101.5 72t133.5 25.5q100 0 172.5 -44t112 -124.5t39.5 -191.5q0 -84 -23 -151t-65 -114t-101.5 -72.5t-134.5 -25.5zM383 64q76 0 128.5 34t80.5 99t28 156q0 137 -61.5 212.5t-175.5 75.5
q-74 0 -126.5 -34t-80.5 -98.5t-28 -155.5q0 -136 62 -212.5t173 -76.5zM201 -26q-7 -12 -16.5 -15t-19.5 -0.5t-17 10t-8.5 18t5.5 22.5l41 70l24 40l296 506l19 35l41 71q7 12 16.5 15t20 0.5t17.5 -9.5t8.5 -18t-6.5 -23l-41 -70l-24 -40l-295 -506l-19 -34zM418 769
q-8 -9 -18.5 -9.5t-18.5 5t-10.5 14.5t4.5 20l89 129q9 13 20 16t22 -0.5t17.5 -11.5t7 -18.5t-8.5 -21.5z" />
    <glyph glyph-name="oslashacute" unicode="&#x1ff;" horiz-adv-x="556" 
d="M278 -9q-71 0 -123 31t-80.5 87.5t-28.5 133.5q0 58 16 104.5t47 79.5t73.5 50.5t95.5 17.5q71 0 123 -31t80.5 -87.5t28.5 -133.5q0 -58 -16 -104t-47 -79.5t-73.5 -51t-95.5 -17.5zM278 56q45 0 79 22t52.5 64t18.5 101q0 91 -40.5 139t-109.5 48q-46 0 -79.5 -21.5
t-52 -63t-18.5 -102.5q0 -90 41 -138.5t109 -48.5zM152 -30q-7 -12 -18 -14t-20.5 3.5t-13 16.5t4.5 25l299 516q8 12 19 13.5t20 -4t13 -16.5t-4 -24zM310 556q-7 -10 -17 -11.5t-19 3t-13 13.5t2 21l84 163q7 14 18 18t22.5 1.5t19.5 -10.5t9.5 -19t-6.5 -23z" />
    <glyph glyph-name="uni0200" unicode="&#x200;" horiz-adv-x="729" 
d="M72 -7q-16 0 -25.5 7.5t-11 20t5.5 28.5l275 626q9 20 21.5 28.5t27.5 8.5t27.5 -8.5t20.5 -28.5l276 -626q8 -16 6.5 -29t-10.5 -20t-25 -7q-18 0 -29 9.5t-18 27.5l-74 171l40 -21h-430l41 21l-73 -171q-9 -19 -19 -28t-26 -9zM364 609l-161 -379l-24 19h370l-22 -19
l-161 379h-2zM402 769l-85 126q-9 12 -7.5 22.5t8.5 17.5t17.5 9.5t21 -2t16.5 -17.5l69 -136q5 -10 2 -18t-10.5 -11.5t-16 -1.5t-15.5 11zM277 768l-89 127q-9 12 -8 22.5t8 17.5t17.5 9.5t20.5 -1.5t17 -18l70 -135q5 -9 3 -17.5t-9 -12.5t-15 -2.5t-15 10.5z" />
    <glyph glyph-name="uni0201" unicode="&#x201;" horiz-adv-x="530" 
d="M229 -9q-50 0 -89.5 19.5t-62.5 53.5t-23 76q0 54 27.5 85t91 44t173.5 13h45v-53h-44q-81 0 -127.5 -7.5t-65 -25.5t-18.5 -51q0 -41 28.5 -67t77.5 -26q40 0 70.5 19t48 52t17.5 76v114q0 62 -25 89.5t-82 27.5q-35 0 -70 -9t-74 -29q-14 -7 -24 -4.5t-16 10.5t-7 18.5
t4.5 20.5t17.5 16q44 22 87 32t82 10q63 0 104 -20.5t61 -62t20 -106.5v-271q0 -20 -9.5 -31t-27.5 -11q-19 0 -29 11t-10 31v78h9q-8 -38 -30.5 -65t-55.5 -42t-74 -15zM311 558l-67 163q-6 14 -2.5 24t13 15.5t21 5t21 -7.5t13.5 -22l44 -165q3 -10 -1.5 -17t-13 -9.5
t-16.5 1t-12 12.5zM184 558l-67 163q-6 14 -2.5 24t13 15.5t20.5 5t20.5 -7.5t13.5 -22l45 -165q3 -10 -2 -17t-13 -9.5t-16 1t-12 12.5z" />
    <glyph glyph-name="uni0202" unicode="&#x202;" horiz-adv-x="729" 
d="M72 -7q-16 0 -25.5 7.5t-11 20t5.5 28.5l275 626q9 20 21.5 28.5t27.5 8.5t27.5 -8.5t20.5 -28.5l276 -626q8 -16 6.5 -29t-10.5 -20t-25 -7q-18 0 -29 9.5t-18 27.5l-74 171l40 -21h-430l41 21l-73 -171q-9 -19 -19 -28t-26 -9zM364 609l-161 -379l-24 19h370l-22 -19
l-161 379h-2zM222 759q-11 1 -18 9.5t-4 23.5q16 73 61.5 108t104.5 35t105 -35t61 -108q3 -15 -4 -23.5t-18 -9.5q-8 -1 -14.5 2t-10 8.5t-4.5 12.5q-12 54 -44 76.5t-71 22.5q-38 0 -70.5 -22.5t-44.5 -76.5q-1 -7 -4.5 -12.5t-10 -8.5t-14.5 -2z" />
    <glyph glyph-name="uni0203" unicode="&#x203;" horiz-adv-x="530" 
d="M229 -9q-50 0 -89.5 19.5t-62.5 53.5t-23 76q0 54 27.5 85t91 44t173.5 13h45v-53h-44q-81 0 -127.5 -7.5t-65 -25.5t-18.5 -51q0 -41 28.5 -67t77.5 -26q40 0 70.5 19t48 52t17.5 76v114q0 62 -25 89.5t-82 27.5q-35 0 -70 -9t-74 -29q-14 -7 -24 -4.5t-16 10.5t-7 18.5
t4.5 20.5t17.5 16q44 22 87 32t82 10q63 0 104 -20.5t61 -62t20 -106.5v-271q0 -20 -9.5 -31t-27.5 -11q-19 0 -29 11t-10 31v78h9q-8 -38 -30.5 -65t-55.5 -42t-74 -15zM144 547q-12 0 -19 9t-5 23q6 51 25.5 88t51.5 57t75 20t75 -20t52 -57t25 -88q2 -14 -5 -23t-19 -9
q-10 -1 -17.5 6t-9.5 20q-7 58 -34 87t-67 29t-67 -29t-34 -87q-2 -13 -9 -20t-18 -6z" />
    <glyph glyph-name="uni0204" unicode="&#x204;" horiz-adv-x="583" 
d="M132 0q-22 0 -33.5 11.5t-11.5 33.5v615q0 22 11.5 33.5t33.5 11.5h372q17 0 26 -9t9 -25q0 -17 -9 -26t-26 -9h-337v-244h316q17 0 26 -8.5t9 -25.5t-9 -26t-26 -9h-316v-254h337q17 0 26 -9t9 -25q0 -17 -9 -26t-26 -9h-372zM360 769l-85 126q-9 12 -7.5 22.5t8.5 17.5
t17.5 9.5t21 -2t16.5 -17.5l69 -136q5 -10 2 -18t-10.5 -11.5t-16 -1.5t-15.5 11zM235 768l-89 127q-9 12 -8 22.5t8 17.5t17.5 9.5t20.5 -1.5t17 -18l70 -135q5 -9 3 -17.5t-9 -12.5t-15 -2.5t-15 10.5z" />
    <glyph glyph-name="uni0205" unicode="&#x205;" horiz-adv-x="532" 
d="M295 -9q-77 0 -132.5 30.5t-86 86.5t-30.5 134q0 76 30 132.5t82.5 88.5t121.5 32q49 0 88 -16.5t66.5 -47.5t42 -75t14.5 -99q0 -16 -9 -23.5t-26 -7.5h-348v53h329l-16 -13q0 54 -16 91.5t-46.5 57.5t-76.5 20q-51 0 -86.5 -23.5t-53.5 -65t-18 -96.5v-6
q0 -92 44.5 -140t126.5 -48q34 0 67.5 9t65.5 30q14 9 25.5 8.5t18.5 -7t9.5 -16t-2 -20.5t-17.5 -19q-33 -24 -78 -37t-89 -13zM319 558l-67 163q-6 14 -2.5 24t13 15.5t21 5t21 -7.5t13.5 -22l44 -165q3 -10 -1.5 -17t-13 -9.5t-16.5 1t-12 12.5zM192 558l-67 163
q-6 14 -2.5 24t13 15.5t20.5 5t20.5 -7.5t13.5 -22l45 -165q3 -10 -2 -17t-13 -9.5t-16 1t-12 12.5z" />
    <glyph glyph-name="uni0206" unicode="&#x206;" horiz-adv-x="583" 
d="M132 0q-22 0 -33.5 11.5t-11.5 33.5v615q0 22 11.5 33.5t33.5 11.5h372q17 0 26 -9t9 -25q0 -17 -9 -26t-26 -9h-337v-244h316q17 0 26 -8.5t9 -25.5t-9 -26t-26 -9h-316v-254h337q17 0 26 -9t9 -25q0 -17 -9 -26t-26 -9h-372zM180 759q-11 1 -18 9.5t-4 23.5
q16 73 61.5 108t104.5 35t105 -35t61 -108q3 -15 -4 -23.5t-18 -9.5q-8 -1 -14.5 2t-10 8.5t-4.5 12.5q-12 54 -44 76.5t-71 22.5q-38 0 -70.5 -22.5t-44.5 -76.5q-1 -7 -4.5 -12.5t-10 -8.5t-14.5 -2z" />
    <glyph glyph-name="uni0207" unicode="&#x207;" horiz-adv-x="532" 
d="M295 -9q-77 0 -132.5 30.5t-86 86.5t-30.5 134q0 76 30 132.5t82.5 88.5t121.5 32q49 0 88 -16.5t66.5 -47.5t42 -75t14.5 -99q0 -16 -9 -23.5t-26 -7.5h-348v53h329l-16 -13q0 54 -16 91.5t-46.5 57.5t-76.5 20q-51 0 -86.5 -23.5t-53.5 -65t-18 -96.5v-6
q0 -92 44.5 -140t126.5 -48q34 0 67.5 9t65.5 30q14 9 25.5 8.5t18.5 -7t9.5 -16t-2 -20.5t-17.5 -19q-33 -24 -78 -37t-89 -13zM152 547q-12 0 -19 9t-5 23q6 51 25.5 88t51.5 57t75 20t75 -20t52 -57t25 -88q2 -14 -5 -23t-19 -9q-10 -1 -17.5 6t-9.5 20q-7 58 -34 87
t-67 29t-67 -29t-34 -87q-2 -13 -9 -20t-18 -6z" />
    <glyph glyph-name="uni0208" unicode="&#x208;" horiz-adv-x="257" 
d="M128 -7q-20 0 -30.5 11.5t-10.5 31.5v633q0 21 10.5 32t30.5 11t30.5 -11t10.5 -32v-633q0 -20 -10 -31.5t-31 -11.5zM164 769l-85 126q-9 12 -7.5 22.5t8.5 17.5t17.5 9.5t21 -2t16.5 -17.5l69 -136q5 -10 2 -18t-10.5 -11.5t-16 -1.5t-15.5 11zM39 768l-89 127
q-9 12 -8 22.5t8 17.5t17.5 9.5t20.5 -1.5t17 -18l70 -135q5 -9 3 -17.5t-9 -12.5t-15 -2.5t-15 10.5z" />
    <glyph glyph-name="uni0209" unicode="&#x209;" horiz-adv-x="232" 
d="M116 -5q-20 0 -30 11.5t-10 32.5v409q0 21 10 32t30 11q19 0 30 -11t11 -32v-409q0 -21 -10.5 -32.5t-30.5 -11.5zM155 558l-67 163q-6 14 -2.5 24t13 15.5t21 5t21 -7.5t13.5 -22l44 -165q3 -10 -1.5 -17t-13 -9.5t-16.5 1t-12 12.5zM28 558l-67 163q-6 14 -2.5 24
t13 15.5t20.5 5t20.5 -7.5t13.5 -22l45 -165q3 -10 -2 -17t-13 -9.5t-16 1t-12 12.5z" />
    <glyph glyph-name="uni020A" unicode="&#x20a;" horiz-adv-x="257" 
d="M128 -7q-20 0 -30.5 11.5t-10.5 31.5v633q0 21 10.5 32t30.5 11t30.5 -11t10.5 -32v-633q0 -20 -10 -31.5t-31 -11.5zM-16 759q-11 1 -18 9.5t-4 23.5q16 73 61.5 108t104.5 35t105 -35t61 -108q3 -15 -4 -23.5t-18 -9.5q-8 -1 -14.5 2t-10 8.5t-4.5 12.5
q-12 54 -44 76.5t-71 22.5q-38 0 -70.5 -22.5t-44.5 -76.5q-1 -7 -4.5 -12.5t-10 -8.5t-14.5 -2z" />
    <glyph glyph-name="uni020B" unicode="&#x20b;" horiz-adv-x="232" 
d="M116 -5q-20 0 -30 11.5t-10 32.5v409q0 21 10 32t30 11q19 0 30 -11t11 -32v-409q0 -21 -10.5 -32.5t-30.5 -11.5zM-12 547q-12 0 -19 9t-5 23q6 51 25.5 88t51.5 57t75 20t75 -20t52 -57t25 -88q2 -14 -5 -23t-19 -9q-10 -1 -17.5 6t-9.5 20q-7 58 -34 87t-67 29
t-67 -29t-34 -87q-2 -13 -9 -20t-18 -6z" />
    <glyph glyph-name="uni020C" unicode="&#x20c;" horiz-adv-x="767" 
d="M383 -9q-98 0 -170.5 44.5t-112 125.5t-39.5 192q0 84 22.5 150.5t64.5 113t101.5 72t133.5 25.5q100 0 172.5 -44t112 -124.5t39.5 -191.5q0 -84 -23 -151t-65 -114t-101.5 -72.5t-134.5 -25.5zM383 64q76 0 128.5 34t80.5 99t28 156q0 137 -61.5 212.5t-175.5 75.5
q-74 0 -126.5 -34t-80.5 -98.5t-28 -155.5q0 -136 62 -212.5t173 -76.5zM419 769l-85 126q-9 12 -7.5 22.5t8.5 17.5t17.5 9.5t21 -2t16.5 -17.5l69 -136q5 -10 2 -18t-10.5 -11.5t-16 -1.5t-15.5 11zM294 768l-89 127q-9 12 -8 22.5t8 17.5t17.5 9.5t20.5 -1.5t17 -18
l70 -135q5 -9 3 -17.5t-9 -12.5t-15 -2.5t-15 10.5z" />
    <glyph glyph-name="uni020D" unicode="&#x20d;" horiz-adv-x="556" 
d="M278 -9q-71 0 -123 31t-80.5 87.5t-28.5 133.5q0 58 16 104.5t47 79.5t73.5 50.5t95.5 17.5q71 0 123 -31t80.5 -87.5t28.5 -133.5q0 -58 -16 -104t-47 -79.5t-73.5 -51t-95.5 -17.5zM278 56q45 0 79 22t52.5 64t18.5 101q0 91 -40.5 139t-109.5 48q-46 0 -79.5 -21.5
t-52 -63t-18.5 -102.5q0 -90 41 -138.5t109 -48.5zM317 558l-67 163q-6 14 -2.5 24t13 15.5t21 5t21 -7.5t13.5 -22l44 -165q3 -10 -1.5 -17t-13 -9.5t-16.5 1t-12 12.5zM190 558l-67 163q-6 14 -2.5 24t13 15.5t20.5 5t20.5 -7.5t13.5 -22l45 -165q3 -10 -2 -17t-13 -9.5
t-16 1t-12 12.5z" />
    <glyph glyph-name="uni020E" unicode="&#x20e;" horiz-adv-x="767" 
d="M383 -9q-98 0 -170.5 44.5t-112 125.5t-39.5 192q0 84 22.5 150.5t64.5 113t101.5 72t133.5 25.5q100 0 172.5 -44t112 -124.5t39.5 -191.5q0 -84 -23 -151t-65 -114t-101.5 -72.5t-134.5 -25.5zM383 64q76 0 128.5 34t80.5 99t28 156q0 137 -61.5 212.5t-175.5 75.5
q-74 0 -126.5 -34t-80.5 -98.5t-28 -155.5q0 -136 62 -212.5t173 -76.5zM239 759q-11 1 -18 9.5t-4 23.5q16 73 61.5 108t104.5 35t105 -35t61 -108q3 -15 -4 -23.5t-18 -9.5q-8 -1 -14.5 2t-10 8.5t-4.5 12.5q-12 54 -44 76.5t-71 22.5q-38 0 -70.5 -22.5t-44.5 -76.5
q-1 -7 -4.5 -12.5t-10 -8.5t-14.5 -2z" />
    <glyph glyph-name="uni020F" unicode="&#x20f;" horiz-adv-x="556" 
d="M278 -9q-71 0 -123 31t-80.5 87.5t-28.5 133.5q0 58 16 104.5t47 79.5t73.5 50.5t95.5 17.5q71 0 123 -31t80.5 -87.5t28.5 -133.5q0 -58 -16 -104t-47 -79.5t-73.5 -51t-95.5 -17.5zM278 56q45 0 79 22t52.5 64t18.5 101q0 91 -40.5 139t-109.5 48q-46 0 -79.5 -21.5
t-52 -63t-18.5 -102.5q0 -90 41 -138.5t109 -48.5zM150 547q-12 0 -19 9t-5 23q6 51 25.5 88t51.5 57t75 20t75 -20t52 -57t25 -88q2 -14 -5 -23t-19 -9q-10 -1 -17.5 6t-9.5 20q-7 58 -34 87t-67 29t-67 -29t-34 -87q-2 -13 -9 -20t-18 -6z" />
    <glyph glyph-name="uni0210" unicode="&#x210;" horiz-adv-x="669" 
d="M128 -7q-20 0 -30.5 11.5t-10.5 31.5v627q0 21 11 31.5t31 10.5h237q113 0 174 -53t61 -151q0 -62 -27.5 -107.5t-80.5 -69t-127 -23.5l10 13h20q39 0 68 -20t53 -64l96 -179q8 -14 7.5 -27.5t-9.5 -22t-26 -8.5t-28 8t-19 23l-109 202q-23 43 -53 57.5t-79 14.5h-128
v-262q0 -20 -10 -31.5t-31 -11.5zM169 363h185q82 0 124 34.5t42 103.5q0 67 -42 101.5t-124 34.5h-185v-274zM377 769l-85 126q-9 12 -7.5 22.5t8.5 17.5t17.5 9.5t21 -2t16.5 -17.5l69 -136q5 -10 2 -18t-10.5 -11.5t-16 -1.5t-15.5 11zM252 768l-89 127q-9 12 -8 22.5
t8 17.5t17.5 9.5t20.5 -1.5t17 -18l70 -135q5 -9 3 -17.5t-9 -12.5t-15 -2.5t-15 10.5z" />
    <glyph glyph-name="uni0211" unicode="&#x211;" horiz-adv-x="358" 
d="M117 -7q-20 0 -30.5 11t-10.5 31v417q0 20 10 30.5t29 10.5t29.5 -10.5t10.5 -30.5v-81h-10q16 59 61 91t111 34q15 1 24 -6.5t10 -25.5q1 -17 -8 -27t-28 -12l-16 -2q-68 -6 -104.5 -43.5t-36.5 -102.5v-242q0 -20 -10.5 -31t-30.5 -11zM254 558l-67 163q-6 14 -2.5 24
t13 15.5t21 5t21 -7.5t13.5 -22l44 -165q3 -10 -1.5 -17t-13 -9.5t-16.5 1t-12 12.5zM127 558l-67 163q-6 14 -2.5 24t13 15.5t20.5 5t20.5 -7.5t13.5 -22l45 -165q3 -10 -2 -17t-13 -9.5t-16 1t-12 12.5z" />
    <glyph glyph-name="uni0212" unicode="&#x212;" horiz-adv-x="669" 
d="M128 -7q-20 0 -30.5 11.5t-10.5 31.5v627q0 21 11 31.5t31 10.5h237q113 0 174 -53t61 -151q0 -62 -27.5 -107.5t-80.5 -69t-127 -23.5l10 13h20q39 0 68 -20t53 -64l96 -179q8 -14 7.5 -27.5t-9.5 -22t-26 -8.5t-28 8t-19 23l-109 202q-23 43 -53 57.5t-79 14.5h-128
v-262q0 -20 -10 -31.5t-31 -11.5zM169 363h185q82 0 124 34.5t42 103.5q0 67 -42 101.5t-124 34.5h-185v-274zM197 759q-11 1 -18 9.5t-4 23.5q16 73 61.5 108t104.5 35t105 -35t61 -108q3 -15 -4 -23.5t-18 -9.5q-8 -1 -14.5 2t-10 8.5t-4.5 12.5q-12 54 -44 76.5t-71 22.5
q-38 0 -70.5 -22.5t-44.5 -76.5q-1 -7 -4.5 -12.5t-10 -8.5t-14.5 -2z" />
    <glyph glyph-name="uni0213" unicode="&#x213;" horiz-adv-x="358" 
d="M117 -7q-20 0 -30.5 11t-10.5 31v417q0 20 10 30.5t29 10.5t29.5 -10.5t10.5 -30.5v-81h-10q16 59 61 91t111 34q15 1 24 -6.5t10 -25.5q1 -17 -8 -27t-28 -12l-16 -2q-68 -6 -104.5 -43.5t-36.5 -102.5v-242q0 -20 -10.5 -31t-30.5 -11zM87 547q-12 0 -19 9t-5 23
q6 51 25.5 88t51.5 57t75 20t75 -20t52 -57t25 -88q2 -14 -5 -23t-19 -9q-10 -1 -17.5 6t-9.5 20q-7 58 -34 87t-67 29t-67 -29t-34 -87q-2 -13 -9 -20t-18 -6z" />
    <glyph glyph-name="uni0214" unicode="&#x214;" horiz-adv-x="728" 
d="M365 -9q-70 0 -122.5 18.5t-88.5 55t-54 90.5t-18 124v391q0 21 10.5 31.5t30.5 10.5t30.5 -10.5t10.5 -31.5v-387q0 -110 51 -164.5t150 -54.5t149 54.5t50 164.5v387q0 21 11 31.5t31 10.5q19 0 29.5 -10.5t10.5 -31.5v-391q0 -93 -31.5 -158t-94.5 -97.5t-155 -32.5z
M401 769l-85 126q-9 12 -7.5 22.5t8.5 17.5t17.5 9.5t21 -2t16.5 -17.5l69 -136q5 -10 2 -18t-10.5 -11.5t-16 -1.5t-15.5 11zM276 768l-89 127q-9 12 -8 22.5t8 17.5t17.5 9.5t20.5 -1.5t17 -18l70 -135q5 -9 3 -17.5t-9 -12.5t-15 -2.5t-15 10.5z" />
    <glyph glyph-name="uni0215" unicode="&#x215;" horiz-adv-x="561" 
d="M248 -9q-59 0 -97.5 21.5t-58 64.5t-19.5 107v268q0 21 10.5 31t29.5 10q20 0 30.5 -10t10.5 -31v-267q0 -64 26.5 -95.5t83.5 -31.5q62 0 101 42t39 110v242q0 21 10.5 31t30.5 10q19 0 29.5 -10t10.5 -31v-417q0 -42 -39 -42q-19 0 -29.5 11t-10.5 31v91l13 -14
q-20 -59 -65.5 -90t-105.5 -31zM320 559l-67 163q-6 14 -2.5 24t13 15.5t21 5t21 -7.5t13.5 -22l44 -165q3 -10 -1.5 -17t-13 -9.5t-16.5 1t-12 12.5zM193 559l-67 163q-6 14 -2.5 24t13 15.5t20.5 5t20.5 -7.5t13.5 -22l45 -165q3 -10 -2 -17t-13 -9.5t-16 1t-12 12.5z" />
    <glyph glyph-name="uni0216" unicode="&#x216;" horiz-adv-x="728" 
d="M365 -9q-70 0 -122.5 18.5t-88.5 55t-54 90.5t-18 124v391q0 21 10.5 31.5t30.5 10.5t30.5 -10.5t10.5 -31.5v-387q0 -110 51 -164.5t150 -54.5t149 54.5t50 164.5v387q0 21 11 31.5t31 10.5q19 0 29.5 -10.5t10.5 -31.5v-391q0 -93 -31.5 -158t-94.5 -97.5t-155 -32.5z
M221 759q-11 1 -18 9.5t-4 23.5q16 73 61.5 108t104.5 35t105 -35t61 -108q3 -15 -4 -23.5t-18 -9.5q-8 -1 -14.5 2t-10 8.5t-4.5 12.5q-12 54 -44 76.5t-71 22.5q-38 0 -70.5 -22.5t-44.5 -76.5q-1 -7 -4.5 -12.5t-10 -8.5t-14.5 -2z" />
    <glyph glyph-name="uni0217" unicode="&#x217;" horiz-adv-x="561" 
d="M248 -9q-59 0 -97.5 21.5t-58 64.5t-19.5 107v268q0 21 10.5 31t29.5 10q20 0 30.5 -10t10.5 -31v-267q0 -64 26.5 -95.5t83.5 -31.5q62 0 101 42t39 110v242q0 21 10.5 31t30.5 10q19 0 29.5 -10t10.5 -31v-417q0 -42 -39 -42q-19 0 -29.5 11t-10.5 31v91l13 -14
q-20 -59 -65.5 -90t-105.5 -31zM153 548q-12 0 -19 9t-5 23q6 51 25.5 88t51.5 57t75 20t75 -20t52 -57t25 -88q2 -14 -5 -23t-19 -9q-10 -1 -17.5 6t-9.5 20q-7 58 -34 87t-67 29t-67 -29t-34 -87q-2 -13 -9 -20t-18 -6z" />
    <glyph glyph-name="uni0218" unicode="&#x218;" horiz-adv-x="615" 
d="M315 -9q-47 0 -92 8t-83.5 23t-69.5 38q-12 9 -16.5 20.5t-2 23t10 19.5t18.5 9t24 -7q45 -32 96 -46.5t115 -14.5q90 0 133.5 33.5t43.5 88.5q0 45 -31.5 70.5t-105.5 40.5l-104 21q-94 20 -140.5 65.5t-46.5 121.5q0 47 19 85.5t53 66t81 42.5t104 15q63 0 117.5 -17.5
t98.5 -52.5q11 -9 15 -20.5t1 -22t-10.5 -17.5t-19 -8t-25.5 8q-40 30 -83 43.5t-95 13.5q-53 0 -91.5 -16t-60 -46.5t-21.5 -70.5q0 -48 29.5 -76t96.5 -41l104 -22q101 -21 149.5 -63.5t48.5 -115.5q0 -44 -18 -81t-52 -63.5t-82 -40.5t-108 -14zM330 -250
q-9 -10 -18.5 -12t-17 3.5t-8 14.5t7.5 22q11 15 16.5 33t5.5 33l3 -15q-26 0 -40.5 13t-14.5 35t13.5 35t37.5 13q25 0 38.5 -14.5t13.5 -43.5q0 -19 -4 -40t-12 -41t-21 -36z" />
    <glyph glyph-name="uni0219" unicode="&#x219;" horiz-adv-x="481" 
d="M240 -9q-45 0 -90.5 11t-84.5 38q-10 7 -14 16.5t-2.5 19t8 16.5t16 8.5t21.5 -4.5q39 -24 75.5 -33.5t72.5 -9.5q57 0 86 21t29 57q0 28 -19 44.5t-60 25.5l-91 20q-63 13 -93.5 45t-30.5 83q0 45 23.5 77.5t66.5 50.5t100 18q44 0 83.5 -11.5t71.5 -36.5
q10 -7 13.5 -16.5t1 -19t-9.5 -16t-17 -7.5t-21 6q-30 20 -61 29.5t-61 9.5q-56 0 -85 -22t-29 -58q0 -28 18 -46t56 -26l91 -19q65 -14 97.5 -44.5t32.5 -82.5q0 -66 -53 -105t-141 -39zM254 -250q-9 -10 -18.5 -12t-17 3.5t-8 14.5t7.5 22q11 15 16.5 33t5.5 33l3 -15
q-26 0 -40.5 13t-14.5 35t13.5 35t37.5 13q25 0 38.5 -14.5t13.5 -43.5q0 -19 -4 -40t-12 -41t-21 -36z" />
    <glyph glyph-name="uni021A" unicode="&#x21a;" horiz-adv-x="602" 
d="M301 -7q-19 0 -30 11.5t-11 31.5v598h-225q-18 0 -28 10t-10 26q0 17 10 26t28 9h533q18 0 28 -9t10 -26t-10 -26.5t-28 -9.5h-225v-598q0 -20 -10.5 -31.5t-31.5 -11.5zM315 -250q-9 -10 -18.5 -12t-17 3.5t-8 14.5t7.5 22q11 15 16.5 33t5.5 33l3 -15q-26 0 -40.5 13
t-14.5 35t13.5 35t37.5 13q25 0 38.5 -14.5t13.5 -43.5q0 -19 -4 -40t-12 -41t-21 -36z" />
    <glyph glyph-name="uni021B" unicode="&#x21b;" horiz-adv-x="350" 
d="M271 -9q-57 0 -95.5 20.5t-57.5 60t-19 96.5v255h-67q-17 0 -26 8.5t-9 23.5t9 23t26 8h67v115q0 20 11 30.5t30 10.5t29.5 -10.5t10.5 -30.5v-115h126q17 0 26 -8t9 -23t-9 -23.5t-26 -8.5h-126v-247q0 -57 24 -86.5t78 -29.5q19 0 32.5 4t22.5 4q9 1 15 -6t6 -24
q0 -12 -4.5 -22t-15.5 -14q-12 -4 -31.5 -7.5t-35.5 -3.5zM230 -250q-9 -10 -18.5 -12t-17 3.5t-8 14.5t7.5 22q11 15 16.5 33t5.5 33l3 -15q-26 0 -40.5 13t-14.5 35t13.5 35t37.5 13q25 0 38.5 -14.5t13.5 -43.5q0 -19 -4 -40t-12 -41t-21 -36z" />
    <glyph glyph-name="uni021F" unicode="&#x21f;" horiz-adv-x="568" 
d="M116 -7q-20 0 -30 11t-10 31v636q0 20 10 30.5t30 10.5q19 0 30 -10.5t11 -30.5v-293h-13q21 58 68.5 87.5t109.5 29.5q58 0 96.5 -21t57.5 -63.5t19 -107.5v-268q0 -20 -10.5 -31t-29.5 -11q-20 0 -30.5 11t-10.5 31v263q0 68 -26.5 99.5t-84.5 31.5q-67 0 -106.5 -41.5
t-39.5 -110.5v-242q0 -42 -41 -42zM286 756q-15 0 -28 6.5t-23 20.5l-88 124q-7 10 -5 19.5t10 14.5t18.5 3.5t19.5 -11.5l96 -115l97 115q8 10 18.5 11.5t18.5 -3.5t10 -14.5t-5 -19.5l-87 -124q-11 -14 -23.5 -20.5t-28.5 -6.5z" />
    <glyph glyph-name="uni0226" unicode="&#x226;" horiz-adv-x="729" 
d="M72 -7q-16 0 -25.5 7.5t-11 20t5.5 28.5l275 626q9 20 21.5 28.5t27.5 8.5t27.5 -8.5t20.5 -28.5l276 -626q8 -16 6.5 -29t-10.5 -20t-25 -7q-18 0 -29 9.5t-18 27.5l-74 171l40 -21h-430l41 21l-73 -171q-9 -19 -19 -28t-26 -9zM364 609l-161 -379l-24 19h370l-22 -19
l-161 379h-2zM366 803q-23 0 -36 12.5t-13 35.5t13 35t36 12q24 0 36.5 -12t12.5 -35t-12.5 -35.5t-36.5 -12.5z" />
    <glyph glyph-name="uni0227" unicode="&#x227;" horiz-adv-x="530" 
d="M229 -9q-50 0 -89.5 19.5t-62.5 53.5t-23 76q0 54 27.5 85t91 44t173.5 13h45v-53h-44q-81 0 -127.5 -7.5t-65 -25.5t-18.5 -51q0 -41 28.5 -67t77.5 -26q40 0 70.5 19t48 52t17.5 76v114q0 62 -25 89.5t-82 27.5q-35 0 -70 -9t-74 -29q-14 -7 -24 -4.5t-16 10.5t-7 18.5
t4.5 20.5t17.5 16q44 22 87 32t82 10q63 0 104 -20.5t61 -62t20 -106.5v-271q0 -20 -9.5 -31t-27.5 -11q-19 0 -29 11t-10 31v78h9q-8 -38 -30.5 -65t-55.5 -42t-74 -15zM272 605q-23 0 -36 13t-13 35q0 23 13 35.5t36 12.5q24 0 37 -12.5t13 -35.5t-13 -35.5t-37 -12.5z
" />
    <glyph glyph-name="uni0228" unicode="&#x228;" horiz-adv-x="583" 
d="M132 0q-22 0 -33.5 11.5t-11.5 33.5v615q0 22 11.5 33.5t33.5 11.5h372q17 0 26 -9t9 -25q0 -17 -9 -26t-26 -9h-337v-244h316q17 0 26 -8.5t9 -25.5t-9 -26t-26 -9h-316v-254h337q17 0 26 -9t9 -25q0 -17 -9 -26t-26 -9h-372zM327 -192q-18 0 -37.5 2.5t-35.5 9.5
q-11 4 -15 13t-1 18t11 13.5t20 -0.5t25.5 -7t30.5 -2q26 0 42 9.5t16 27.5q0 13 -9 20.5t-29 7.5q-8 0 -15.5 -1t-17.5 -3q-9 -3 -14 -3t-10 3q-4 4 -4.5 9.5t0.5 15.5l12 79h51l-13 -75l-24 6q12 3 23.5 5t21.5 2q36 0 60 -18t24 -50q0 -37 -31 -59.5t-81 -22.5z" />
    <glyph glyph-name="uni022A" unicode="&#x22a;" horiz-adv-x="767" 
d="M383 -9q-98 0 -170.5 44.5t-112 125.5t-39.5 192q0 84 22.5 150.5t64.5 113t101.5 72t133.5 25.5q100 0 172.5 -44t112 -124.5t39.5 -191.5q0 -84 -23 -151t-65 -114t-101.5 -72.5t-134.5 -25.5zM383 64q76 0 128.5 34t80.5 99t28 156q0 137 -61.5 212.5t-175.5 75.5
q-74 0 -126.5 -34t-80.5 -98.5t-28 -155.5q0 -136 62 -212.5t173 -76.5zM262 926q-14 0 -22.5 7t-8.5 20t8.5 20.5t22.5 7.5h242q15 0 23 -7.5t8 -20.5t-8 -20t-23 -7h-242zM296 794q-22 0 -34.5 10.5t-12.5 29.5t12.5 29.5t34.5 10.5q23 0 35 -10.5t12 -29.5t-12 -29.5
t-35 -10.5zM471 794q-23 0 -35.5 10.5t-12.5 29.5t12.5 29.5t35.5 10.5q22 0 34 -10.5t12 -29.5t-12 -29.5t-34 -10.5z" />
    <glyph glyph-name="uni022B" unicode="&#x22b;" horiz-adv-x="556" 
d="M278 -9q-71 0 -123 31t-80.5 87.5t-28.5 133.5q0 58 16 104.5t47 79.5t73.5 50.5t95.5 17.5q71 0 123 -31t80.5 -87.5t28.5 -133.5q0 -58 -16 -104t-47 -79.5t-73.5 -51t-95.5 -17.5zM278 56q45 0 79 22t52.5 64t18.5 101q0 91 -40.5 139t-109.5 48q-46 0 -79.5 -21.5
t-52 -63t-18.5 -102.5q0 -90 41 -138.5t109 -48.5zM157 707q-14 0 -22.5 7.5t-8.5 19.5q0 14 8.5 21t22.5 7h242q15 0 23 -7t8 -21q0 -12 -8 -19.5t-23 -7.5h-242zM191 575q-22 0 -34.5 10.5t-12.5 29.5q0 20 12.5 30.5t34.5 10.5q23 0 35 -10.5t12 -30.5q0 -19 -12 -29.5
t-35 -10.5zM366 575q-23 0 -35.5 10.5t-12.5 29.5q0 20 12.5 30.5t35.5 10.5q22 0 34 -10.5t12 -30.5q0 -19 -12 -29.5t-34 -10.5z" />
    <glyph glyph-name="uni022C" unicode="&#x22c;" horiz-adv-x="767" 
d="M383 -9q-98 0 -170.5 44.5t-112 125.5t-39.5 192q0 84 22.5 150.5t64.5 113t101.5 72t133.5 25.5q100 0 172.5 -44t112 -124.5t39.5 -191.5q0 -84 -23 -151t-65 -114t-101.5 -72.5t-134.5 -25.5zM383 64q76 0 128.5 34t80.5 99t28 156q0 137 -61.5 212.5t-175.5 75.5
q-74 0 -126.5 -34t-80.5 -98.5t-28 -155.5q0 -136 62 -212.5t173 -76.5zM262 926q-14 0 -22.5 7t-8.5 20t8.5 20.5t22.5 7.5h242q15 0 23 -7.5t8 -20.5t-8 -20t-23 -7h-242zM248 766q-10 1 -15.5 9t-2.5 21q9 37 32 55.5t57 18.5q27 0 48 -13t40 -26t39 -13q17 0 29 7.5
t16 25.5q3 11 10 16.5t18 4.5q10 -1 15.5 -9t2.5 -22q-9 -37 -32.5 -55t-56.5 -18q-27 0 -48.5 13t-40 26t-39.5 13q-17 0 -28.5 -7.5t-16.5 -25.5q-3 -10 -9.5 -16t-17.5 -5z" />
    <glyph glyph-name="uni022D" unicode="&#x22d;" horiz-adv-x="556" 
d="M278 -9q-71 0 -123 31t-80.5 87.5t-28.5 133.5q0 58 16 104.5t47 79.5t73.5 50.5t95.5 17.5q71 0 123 -31t80.5 -87.5t28.5 -133.5q0 -58 -16 -104t-47 -79.5t-73.5 -51t-95.5 -17.5zM278 56q45 0 79 22t52.5 64t18.5 101q0 91 -40.5 139t-109.5 48q-46 0 -79.5 -21.5
t-52 -63t-18.5 -102.5q0 -90 41 -138.5t109 -48.5zM157 707q-14 0 -22.5 7.5t-8.5 19.5q0 14 8.5 21t22.5 7h242q15 0 23 -7t8 -21q0 -12 -8 -19.5t-23 -7.5h-242zM143 547q-10 1 -16 9t-2 22q9 37 32 55t57 18q27 0 48 -13t40 -26t39 -13q17 0 28.5 7.5t16.5 25.5
q3 11 10 16.5t18 4.5q10 -1 16 -8.5t2 -21.5q-9 -37 -32.5 -55.5t-56.5 -18.5q-27 0 -48.5 13t-40 26t-39.5 13q-17 0 -28 -7.5t-17 -25.5q-3 -10 -9.5 -16t-17.5 -5z" />
    <glyph glyph-name="uni0230" unicode="&#x230;" horiz-adv-x="767" 
d="M383 -9q-98 0 -170.5 44.5t-112 125.5t-39.5 192q0 84 22.5 150.5t64.5 113t101.5 72t133.5 25.5q100 0 172.5 -44t112 -124.5t39.5 -191.5q0 -84 -23 -151t-65 -114t-101.5 -72.5t-134.5 -25.5zM383 64q76 0 128.5 34t80.5 99t28 156q0 137 -61.5 212.5t-175.5 75.5
q-74 0 -126.5 -34t-80.5 -98.5t-28 -155.5q0 -136 62 -212.5t173 -76.5zM262 926q-14 0 -22.5 7t-8.5 20t8.5 20.5t22.5 7.5h242q15 0 23 -7.5t8 -20.5t-8 -20t-23 -7h-242zM384 794q-22 0 -34.5 10.5t-12.5 29.5t12.5 29.5t34.5 10.5q23 0 35 -10.5t12 -29.5t-12 -29.5
t-35 -10.5z" />
    <glyph glyph-name="uni0231" unicode="&#x231;" horiz-adv-x="556" 
d="M278 -9q-71 0 -123 31t-80.5 87.5t-28.5 133.5q0 58 16 104.5t47 79.5t73.5 50.5t95.5 17.5q71 0 123 -31t80.5 -87.5t28.5 -133.5q0 -58 -16 -104t-47 -79.5t-73.5 -51t-95.5 -17.5zM278 56q45 0 79 22t52.5 64t18.5 101q0 91 -40.5 139t-109.5 48q-46 0 -79.5 -21.5
t-52 -63t-18.5 -102.5q0 -90 41 -138.5t109 -48.5zM157 707q-14 0 -22.5 7.5t-8.5 19.5q0 14 8.5 21t22.5 7h242q15 0 23 -7t8 -21q0 -12 -8 -19.5t-23 -7.5h-242zM279 575q-22 0 -34.5 10.5t-12.5 29.5q0 20 12.5 30.5t34.5 10.5q23 0 35 -10.5t12 -30.5q0 -19 -12 -29.5
t-35 -10.5z" />
    <glyph glyph-name="uni0232" unicode="&#x232;" horiz-adv-x="596" 
d="M298 -7q-20 0 -30.5 11.5t-10.5 32.5v328l18 -57l-251 346q-9 13 -8.5 26.5t10.5 22.5t26 9q14 0 25 -6.5t20 -20.5l213 -294h-21l213 294q11 15 21 21t24 6q16 0 25 -8.5t9.5 -22t-9.5 -28.5l-250 -345l17 57v-328q0 -44 -41 -44zM162 814q-29 0 -29 28q0 13 7.5 20
t21.5 7h272q30 0 30 -27q0 -13 -7.5 -20.5t-22.5 -7.5h-272z" />
    <glyph glyph-name="uni0233" unicode="&#x233;" horiz-adv-x="514" 
d="M184 -187q-15 0 -24 8t-10.5 21.5t4.5 27.5l69 155v-35l-192 446q-6 15 -4 28t12 21t28 8q16 0 25 -7t16 -25l164 -402h-27l166 402q8 18 17 25t26 7q16 0 24.5 -8t10 -20.5t-4.5 -27.5l-256 -592q-8 -18 -17.5 -25t-26.5 -7zM137 625q-29 0 -29 27q0 14 7.5 21t21.5 7
h242q30 0 30 -28q0 -12 -7.5 -19.5t-22.5 -7.5h-242z" />
    <glyph glyph-name="uni0237" unicode="&#x237;" horiz-adv-x="236" 
d="M-17 -191q-15 -1 -24.5 5t-13 15.5t-2 19t8.5 16.5t19 7q55 3 81.5 29.5t26.5 83.5v467q0 20 10.5 30.5t30.5 10.5q19 0 29.5 -10.5t10.5 -30.5v-461q0 -61 -20.5 -100.5t-59.5 -59t-97 -22.5z" />
    <glyph glyph-name="uni0253" unicode="&#x253;" horiz-adv-x="583" 
d="M322 -9q-66 0 -113.5 34t-63.5 91l11 11v-92q0 -20 -10.5 -31t-29.5 -11q-20 0 -30 11t-10 31v508q0 81 42 125.5t123 44.5q34 0 48 -9t14 -26q0 -15 -7 -24.5t-19 -8.5q-6 0 -12.5 1t-15.5 1q-45 0 -68.5 -26t-23.5 -76v-172h-12q17 56 64 89t113 33t114 -30.5t74.5 -87
t26.5 -134.5q0 -77 -26.5 -133.5t-75 -87.5t-113.5 -31zM305 56q46 0 79.5 22t52 64t18.5 101q0 91 -40.5 139t-109.5 48q-45 0 -79 -21.5t-52.5 -63t-18.5 -102.5q0 -90 41 -138.5t109 -48.5z" />
    <glyph glyph-name="uni0257" unicode="&#x257;" horiz-adv-x="583" 
d="M261 -9q-65 0 -113.5 31t-75 87.5t-26.5 133.5q0 78 26.5 134.5t75 87t113.5 30.5q66 0 113 -33t63 -89h-11v170q0 81 42.5 125.5t123.5 44.5q33 0 47.5 -9t14.5 -26q0 -15 -7 -24.5t-19 -8.5q-6 0 -12.5 1t-15.5 1q-45 0 -69 -26t-24 -76v-510q0 -20 -10 -31t-30 -11
q-19 0 -29.5 11t-10.5 31v95l11 -14q-16 -57 -63.5 -91t-113.5 -34zM278 57q45 0 79 21.5t52.5 63.5t18.5 101q0 91 -40.5 139t-109.5 48q-46 0 -79.5 -21.5t-52 -63t-18.5 -102.5q0 -90 41 -138t109 -48z" />
    <glyph glyph-name="uni0259" unicode="&#x259;" horiz-adv-x="532" 
d="M257 -9q-68 0 -116 28t-73.5 82.5t-25.5 129.5q0 15 9 22.5t25 7.5h349v-54h-330l19 14q1 -54 16.5 -92t47 -58t78.5 -20q48 0 82 22t52 64t18 99v6q0 92 -44 140t-127 48q-33 0 -67.5 -9.5t-66.5 -31.5q-14 -8 -25 -7.5t-17.5 7.5t-8.5 17t2 20.5t16 18.5
q33 25 78.5 37.5t88.5 12.5q77 0 133 -30.5t86 -86.5t30 -133q0 -76 -29 -133.5t-80.5 -89t-119.5 -31.5z" />
    <glyph glyph-name="uni0292" unicode="&#x292;" horiz-adv-x="495" 
d="M228 -189q-58 0 -107.5 12.5t-87.5 36.5q-12 8 -15.5 18t-2 20.5t8.5 17.5t17 8.5t22 -6.5q33 -21 72 -31.5t86 -10.5q80 0 120.5 37t40.5 107q0 63 -39.5 97t-113.5 34h-83q-14 0 -20 7.5t-3.5 19t12.5 22.5l220 241v-20h-291q-17 0 -26.5 8.5t-9.5 24.5q0 32 36 32h339
q14 0 22.5 -6t11 -16.5t-1 -21.5t-13.5 -21l-214 -235l-19 25h61q68 0 115 -22t72.5 -64t25.5 -101q0 -66 -28.5 -114t-81 -73.5t-125.5 -25.5z" />
    <glyph glyph-name="uni02B9" unicode="&#x2b9;" horiz-adv-x="221" 
d="M111 421q-11 0 -19.5 8t-9.5 24l-15 210q-3 21 10 35t34 14q20 0 33 -13.5t11 -35.5l-14 -210q-1 -16 -9 -24t-21 -8z" />
    <glyph glyph-name="uni02BA" unicode="&#x2ba;" horiz-adv-x="392" 
d="M111 421q-11 0 -19.5 8.5t-10.5 23.5l-14 210q-2 21 10.5 35t33.5 14q14 0 24 -6.5t15.5 -17.5t4.5 -25l-14 -210q-1 -15 -9 -23.5t-21 -8.5zM282 421q-11 0 -19.5 8.5t-10.5 23.5l-14 210q-2 21 10.5 35t33.5 14q14 0 24 -6.5t15.5 -17.5t4.5 -25l-14 -210
q-1 -15 -9 -23.5t-21 -8.5z" />
    <glyph glyph-name="uni02BB" unicode="&#x2bb;" horiz-adv-x="500" 
d="M251 563q-25 0 -38.5 14.5t-13.5 43.5q0 19 4 39.5t12.5 41t20.5 35.5q9 11 18.5 12.5t17 -3.5t8.5 -14.5t-8 -21.5q-11 -16 -16.5 -34t-5.5 -33l-3 15q26 0 40.5 -12.5t14.5 -35.5q0 -21 -13.5 -34t-37.5 -13z" />
    <glyph glyph-name="uni02BC" unicode="&#x2bc;" horiz-adv-x="323" 
d="M176 586q-9 -11 -19 -12.5t-17 3.5t-8 14t8 22q11 16 16 33.5t5 32.5l3 -15q-25 0 -39.5 13.5t-14.5 34.5q0 22 13.5 35t37.5 13t38 -14.5t14 -43.5q0 -19 -4 -40t-12.5 -40.5t-20.5 -35.5z" />
    <glyph glyph-name="uni02BE" unicode="&#x2be;" horiz-adv-x="500" 
d="M274 556q-14 -3 -22 3t-8 16q0 12 6.5 17t18.5 9q17 6 25.5 20.5t8.5 31.5t-8.5 31.5t-25.5 19.5q-12 5 -18.5 10t-6.5 16q0 10 8 16.5t22 3.5q35 -8 56.5 -35.5t21.5 -61.5q0 -35 -21.5 -62t-56.5 -35z" />
    <glyph glyph-name="uni02BF" unicode="&#x2bf;" horiz-adv-x="500" 
d="M226 556q-35 8 -56 35t-21 62q0 34 21 61.5t56 35.5q15 3 23 -3t8 -17t-6.5 -16t-19.5 -10q-16 -5 -25 -19.5t-9 -31.5t9 -31.5t25 -20.5q13 -4 19.5 -9t6.5 -16q0 -10 -8 -16t-23 -4z" />
    <glyph glyph-name="circumflex" unicode="&#x2c6;" horiz-adv-x="472" 
d="M368 582q6 -12 2.5 -21.5t-12 -13.5t-18 -2.5t-15.5 11.5l-89 143l-89 -143q-6 -10 -15.5 -11.5t-18 2.5t-12 13.5t2.5 21.5l83 152q9 16 21 24t28 8t28 -8t21 -24z" />
    <glyph glyph-name="caron" unicode="&#x2c7;" horiz-adv-x="472" 
d="M236 538q-16 0 -28 8.5t-21 24.5l-83 151q-6 12 -2.5 21.5t12 14t18 2.5t15.5 -12l89 -143l89 143q6 10 15.5 12t18 -2.5t12 -14t-2.5 -21.5l-83 -151q-9 -16 -21 -24.5t-28 -8.5z" />
    <glyph glyph-name="uni02C8" unicode="&#x2c8;" horiz-adv-x="500" 
d="M250 588q-14 0 -22 8.5t-8 23.5v151q0 31 30 31q15 0 22.5 -8t7.5 -23v-151q0 -32 -30 -32z" />
    <glyph glyph-name="uni02C9" unicode="&#x2c9;" horiz-adv-x="500" 
d="M125 625q-30 0 -30 27q0 14 7.5 21t22.5 7h251q29 0 29 -28q0 -12 -7.5 -19.5t-21.5 -7.5h-251z" />
    <glyph glyph-name="uni02CA" unicode="&#x2ca;" horiz-adv-x="500" 
d="M283 556q-7 -10 -17 -11.5t-19 3t-13 13.5t2 21l84 163q7 14 18 18t22.5 1.5t19.5 -10.5t9.5 -19t-6.5 -23z" />
    <glyph glyph-name="uni02CB" unicode="&#x2cb;" horiz-adv-x="500" 
d="M218 556l-101 156q-8 12 -6 23t10 19t19 10.5t22 -1.5t18 -18l84 -163q6 -12 2.5 -21t-13 -13.5t-19 -3t-16.5 11.5z" />
    <glyph glyph-name="uni02CC" unicode="&#x2cc;" horiz-adv-x="500" 
d="M250 -277q-14 0 -22 8.5t-8 22.5v153q0 32 30 32q15 0 22.5 -8t7.5 -24v-153q0 -31 -30 -31z" />
    <glyph glyph-name="breve" unicode="&#x2d8;" horiz-adv-x="506" 
d="M253 549q-43 0 -75 20t-51.5 57.5t-25.5 87.5q-2 14 5 23t19 9q11 1 18 -6t9 -20q8 -58 34.5 -87t66.5 -29t67.5 29t33.5 87q2 13 9.5 20t17.5 6q12 0 19 -9t5 -23q-5 -50 -25 -87.5t-52 -57.5t-75 -20z" />
    <glyph glyph-name="dotaccent" unicode="&#x2d9;" horiz-adv-x="299" 
d="M149 605q-23 0 -36 13t-13 35q0 23 13 35.5t36 12.5q24 0 37 -12.5t13 -35.5t-13 -35.5t-37 -12.5z" />
    <glyph glyph-name="ring" unicode="&#x2da;" horiz-adv-x="437" 
d="M219 547q-33 0 -60 15.5t-43 42t-16 58.5q0 33 16 58.5t43 41t60 15.5q34 0 60.5 -15.5t42.5 -41t16 -58.5q0 -32 -16 -58.5t-42.5 -42t-60.5 -15.5zM219 590q32 0 52 21t20 52q0 30 -20 51t-52 21q-31 0 -51.5 -21t-20.5 -51q0 -31 20.5 -52t51.5 -21z" />
    <glyph glyph-name="ogonek" unicode="&#x2db;" horiz-adv-x="382" 
d="M205 -192q-47 0 -76 26t-29 71q0 40 25.5 75.5t69.5 55.5l29 -36q-15 -6 -30.5 -18.5t-25.5 -29.5t-10 -38q0 -28 16.5 -42t41.5 -14q9 0 17.5 1.5t17.5 4.5q13 4 21 -1t9.5 -14.5t-2.5 -18.5t-15 -13q-15 -6 -30 -7.5t-29 -1.5z" />
    <glyph glyph-name="tilde" unicode="&#x2dc;" horiz-adv-x="555" 
d="M121 587q-10 0 -16.5 7t-3.5 21q4 24 12 44t21 35t30.5 23.5t40.5 8.5q25 0 43.5 -11.5t35 -26t32.5 -26.5t34 -12q23 0 38.5 17.5t20.5 46.5q2 10 8.5 14.5t17.5 3.5q10 0 16.5 -7t3.5 -21q-5 -31 -18.5 -56t-34.5 -40t-51 -15q-25 0 -43.5 11.5t-35 26.5t-32.5 26.5
t-34 11.5q-23 0 -38 -17t-21 -47q-2 -9 -8.5 -14t-17.5 -4z" />
    <glyph glyph-name="hungarumlaut" unicode="&#x2dd;" horiz-adv-x="443" 
d="M272 558q-4 -9 -12 -12.5t-16.5 -1t-13.5 9.5t-2 17l45 165q4 15 13.5 22t20.5 7.5t20.5 -5t13.5 -15.5t-2 -24zM144 558q-4 -9 -12 -12.5t-16.5 -1t-13 9.5t-1.5 17l45 165q3 15 13 22t21 7.5t20.5 -5.5t13 -15.5t-2.5 -23.5z" />
    <glyph glyph-name="gravecomb" unicode="&#x300;" 
d="M-32 556l-101 156q-8 12 -6 23t10 19t19 10.5t22 -1.5t18 -18l84 -163q6 -12 2.5 -21t-13 -13.5t-19 -3t-16.5 11.5z" />
    <glyph glyph-name="acutecomb" unicode="&#x301;" 
d="M33 556q-7 -10 -17 -11.5t-19 3t-13 13.5t2 21l84 163q7 14 18 18t22.5 1.5t19.5 -10.5t9.5 -19t-6.5 -23z" />
    <glyph glyph-name="uni0302" unicode="&#x302;" 
d="M132 582q6 -12 2.5 -21.5t-12 -13.5t-18 -2.5t-15.5 11.5l-89 143l-89 -143q-6 -10 -15.5 -11.5t-18 2.5t-12 13.5t2.5 21.5l83 152q9 16 21 24t28 8t28 -8t21 -24z" />
    <glyph glyph-name="tildecomb" unicode="&#x303;" 
d="M-157 587q-10 0 -16.5 7t-3.5 21q4 24 12 44t21 35t30.5 23.5t40.5 8.5q25 0 43.5 -11.5t35 -26t32.5 -26.5t34 -12q23 0 38.5 17.5t20.5 46.5q2 10 8.5 14.5t17.5 3.5q10 0 16.5 -7t3.5 -21q-5 -31 -18.5 -56t-34.5 -40t-51 -15q-25 0 -43.5 11.5t-35 26.5t-32.5 26.5
t-34 11.5q-23 0 -38 -17t-21 -47q-2 -9 -8.5 -14t-17.5 -4z" />
    <glyph glyph-name="uni0304" unicode="&#x304;" 
d="M-121 625q-29 0 -29 27q0 14 7.5 21t21.5 7h242q30 0 30 -28q0 -12 -7.5 -19.5t-22.5 -7.5h-242z" />
    <glyph glyph-name="uni0306" unicode="&#x306;" 
d="M0 549q-43 0 -75 20t-51.5 57.5t-25.5 87.5q-2 14 5 23t19 9q11 1 18 -6t9 -20q8 -58 34.5 -87t66.5 -29t67.5 29t33.5 87q2 13 9.5 20t17.5 6q12 0 19 -9t5 -23q-5 -50 -25 -87.5t-52 -57.5t-75 -20z" />
    <glyph glyph-name="uni0307" unicode="&#x307;" 
d="M0 605q-23 0 -36 13t-13 35q0 23 13 35.5t36 12.5q24 0 37 -12.5t13 -35.5t-13 -35.5t-37 -12.5z" />
    <glyph glyph-name="uni0308" unicode="&#x308;" 
d="M88 606q-23 0 -35.5 12t-12.5 34t12.5 34.5t35.5 12.5q22 0 34 -12.5t12 -34.5t-12 -34t-34 -12zM-87 606q-22 0 -34.5 12t-12.5 34t12.5 34.5t34.5 12.5q23 0 35 -12.5t12 -34.5t-12 -34t-35 -12z" />
    <glyph glyph-name="hookabovecomb" unicode="&#x309;" 
d="M0 544q-13 0 -20 6t-7 17q0 25 9.5 41.5t21.5 27.5t21.5 21.5t9.5 24.5t-11.5 21t-34.5 7q-10 0 -21.5 -1.5t-22.5 -5.5q-14 -5 -21.5 -2.5t-11.5 12.5q-3 10 0.5 18.5t16.5 14.5q16 7 35.5 10t39.5 3q46 0 71.5 -17.5t25.5 -50.5q0 -25 -11 -40t-25.5 -26.5t-26 -24.5
t-11.5 -34q0 -11 -6.5 -16.5t-20.5 -5.5z" />
    <glyph glyph-name="uni030A" unicode="&#x30a;" 
d="M0 547q-33 0 -60 15.5t-43 42t-16 58.5q0 33 16 58.5t43 41t60 15.5q34 0 60.5 -15.5t42.5 -41t16 -58.5q0 -32 -16 -58.5t-42.5 -42t-60.5 -15.5zM0 590q32 0 52 21t20 52q0 30 -20 51t-52 21q-31 0 -51.5 -21t-20.5 -51q0 -31 20.5 -52t51.5 -21z" />
    <glyph glyph-name="uni030B" unicode="&#x30b;" 
d="M89 558q-4 -9 -12 -12.5t-16.5 -1t-13.5 9.5t-2 17l45 165q4 15 13.5 22t20.5 7.5t20.5 -5t13.5 -15.5t-2 -24zM-39 558q-4 -9 -12 -12.5t-16.5 -1t-13 9.5t-1.5 17l45 165q3 15 13 22t21 7.5t20.5 -5.5t13 -15.5t-2.5 -23.5z" />
    <glyph glyph-name="uni030C" unicode="&#x30c;" 
d="M0 538q-16 0 -28 8.5t-21 24.5l-83 151q-6 12 -2.5 21.5t12 14t18 2.5t15.5 -12l89 -143l89 143q6 10 15.5 12t18 -2.5t12 -14t-2.5 -21.5l-83 -151q-9 -16 -21 -24.5t-28 -8.5z" />
    <glyph glyph-name="uni030F" unicode="&#x30f;" 
d="M39 558l-67 163q-6 14 -2.5 24t13 15.5t21 5t21 -7.5t13.5 -22l44 -165q3 -10 -1.5 -17t-13 -9.5t-16.5 1t-12 12.5zM-88 558l-67 163q-6 14 -2.5 24t13 15.5t20.5 5t20.5 -7.5t13.5 -22l45 -165q3 -10 -2 -17t-13 -9.5t-16 1t-12 12.5z" />
    <glyph glyph-name="uni0311" unicode="&#x311;" 
d="M-128 547q-12 0 -19 9t-5 23q6 51 25.5 88t51.5 57t75 20t75 -20t52 -57t25 -88q2 -14 -5 -23t-19 -9q-10 -1 -17.5 6t-9.5 20q-7 58 -34 87t-67 29t-67 -29t-34 -87q-2 -13 -9 -20t-18 -6z" />
    <glyph glyph-name="uni0312" unicode="&#x312;" 
d="M1 563q-25 0 -38.5 14.5t-13.5 43.5q0 19 4 39.5t12.5 41t20.5 35.5q9 11 18.5 12.5t17 -3.5t8.5 -14.5t-8 -21.5q-11 -16 -16.5 -34t-5.5 -33l-3 15q26 0 40.5 -12.5t14.5 -35.5q0 -21 -13.5 -34t-37.5 -13z" />
    <glyph glyph-name="uni031B" unicode="&#x31b;" 
d="M41 436l-42 28v22q33 0 54 7t33.5 20t17.5 32t5 44q0 32 36 32q18 0 27 -8t9 -24q0 -69 -36.5 -108.5t-103.5 -44.5z" />
    <glyph glyph-name="dotbelowcomb" unicode="&#x323;" 
d="M0 -191q-23 0 -36 13t-13 35q0 23 13 35t36 12q24 0 37 -12t13 -35q0 -22 -13 -35t-37 -13z" />
    <glyph glyph-name="uni0324" unicode="&#x324;" 
d="M88 -185q-23 0 -35.5 12.5t-12.5 34.5t12.5 34t35.5 12q22 0 34 -12t12 -34q0 -23 -12 -35t-34 -12zM-87 -185q-22 0 -34.5 12.5t-12.5 34.5t12.5 34t34.5 12q23 0 35 -12t12 -34q0 -23 -12 -35t-35 -12z" />
    <glyph glyph-name="uni0326" unicode="&#x326;" 
d="M14 -250q-9 -10 -18.5 -12t-17 3.5t-8 14.5t7.5 22q11 15 16.5 33t5.5 33l3 -15q-26 0 -40.5 13t-14.5 35t13.5 35t37.5 13q25 0 38.5 -14.5t13.5 -43.5q0 -19 -4 -40t-12 -41t-21 -36z" />
    <glyph glyph-name="uni0327" unicode="&#x327;" 
d="M3 -192q-18 0 -37.5 2.5t-35.5 9.5q-11 4 -15 13t-1 18t11 13.5t20 -0.5t25.5 -7t30.5 -2q26 0 42 9.5t16 27.5q0 13 -9 20.5t-29 7.5q-8 0 -15.5 -1t-17.5 -3q-9 -3 -14 -3t-10 3q-4 4 -4.5 9.5t0.5 15.5l12 79h51l-13 -75l-24 6q12 3 23.5 5t21.5 2q36 0 60 -18t24 -50
q0 -37 -31 -59.5t-81 -22.5z" />
    <glyph glyph-name="uni0328" unicode="&#x328;" 
d="M-19 -192q-47 0 -76 26t-29 71q0 40 25.5 75.5t69.5 55.5l29 -36q-15 -6 -30.5 -18.5t-25.5 -29.5t-10 -38q0 -28 16.5 -42t41.5 -14q9 0 17.5 1.5t17.5 4.5q13 4 21 -1t9.5 -14.5t-2.5 -18.5t-15 -13q-15 -6 -30 -7.5t-29 -1.5z" />
    <glyph glyph-name="uni032E" unicode="&#x32e;" 
d="M0 -215q-60 0 -100 33t-51 92q-3 16 3 24.5t18 9.5q7 1 13 -1t10 -7.5t6 -14.5q8 -39 34.5 -60.5t66.5 -21.5q41 0 67 21.5t34 60.5q3 14 10.5 19.5t18.5 3.5q13 -1 19 -9.5t2 -24.5q-11 -59 -51 -92t-100 -33z" />
    <glyph glyph-name="uni0331" unicode="&#x331;" 
d="M-121 -156q-29 0 -29 27q0 14 7.5 21t21.5 7h242q30 0 30 -28q0 -12 -7.5 -19.5t-22.5 -7.5h-242z" />
    </font>
</defs>
</svg>
