<?xml version="1.0" standalone="no"?>
<!DOCTYPE svg PUBLIC "-//W3C//DTD SVG 1.1//EN" "http://www.w3.org/Graphics/SVG/1.1/DTD/svg11.dtd" >
<svg xmlns="http://www.w3.org/2000/svg" xmlns:xlink="http://www.w3.org/1999/xlink" version="1.1">
<metadata>
Created by FontForge 20190801 at Wed Feb 16 12:57:25 2022
 By www-data
Copyright 2014 The Nunito Project Authors (https://github.com/googlefonts/nunito)
</metadata>
<defs>
<font id="NunitoBold" horiz-adv-x="600" >
  <font-face 
    font-family="NunitoBold"
    font-weight="700"
    font-stretch="normal"
    units-per-em="1000"
    panose-1="0 0 0 0 0 0 0 0 0 0"
    ascent="800"
    descent="-200"
    x-height="489"
    cap-height="705"
    bbox="-257.963 -278 1339 1055"
    underline-thickness="28"
    underline-position="-94"
    unicode-range="U+000D-FB02"
  />
<missing-glyph horiz-adv-x="500" 
d="M50 -180v885h400v-885h-400zM100 -130h300v785h-300v-785z" />
    <glyph glyph-name="fi" unicode="fi" horiz-adv-x="611" 
d="M161 -8q-30 0 -46.5 16.5t-16.5 47.5v339h-46q-24 0 -37 12.5t-13 34.5q0 23 13 35t37 12h82l-36 -33v34q0 101 51 153t148 62l30 3q23 2 36.5 -6t18 -21.5t1.5 -28t-12 -25t-23 -11.5l-24 -2q-53 -4 -77 -29t-24 -75v-37l-16 16h277q30 0 46 -17.5t16 -49.5v-361
q0 -32 -15.5 -50t-46.5 -18q-30 0 -46.5 18t-16.5 50v334h-198v-339q0 -64 -62 -64zM486 589q-34 0 -52.5 17.5t-18.5 48.5q0 32 18.5 49t52.5 17q35 0 53.5 -17t18.5 -49q0 -31 -18.5 -48.5t-53.5 -17.5z" />
    <glyph glyph-name="fl" unicode="fl" horiz-adv-x="683" 
d="M161 -8q-30 0 -46.5 16.5t-16.5 47.5v339h-46q-24 0 -37 12.5t-13 34.5q0 23 13 35t37 12h82l-36 -33v34q0 103 52 154.5t150 60.5l34 3q20 2 32 -6.5t16 -22t1 -27.5t-12.5 -24.5t-24.5 -11.5l-14 -1q-57 -4 -83 -29t-26 -76v-37l-16 16h101q24 0 37 -12t13 -35
q0 -22 -13 -34.5t-37 -12.5h-85v-339q0 -64 -62 -64zM596 -10q-83 0 -125 47.5t-42 139.5v473q0 31 16 47t46 16t46.5 -16t16.5 -47v-467q0 -46 19.5 -68t55.5 -22q8 0 15 0.5t14 1.5q14 2 19 -7.5t5 -38.5q0 -25 -10 -39t-33 -17q-10 -1 -21 -2t-22 -1z" />
    <glyph glyph-name=".notdef" horiz-adv-x="500" 
d="M50 -180v885h400v-885h-400zM100 -130h300v785h-300v-785z" />
    <glyph glyph-name=".null" horiz-adv-x="0" 
 />
    <glyph glyph-name="nonmarkingreturn" horiz-adv-x="333" 
 />
    <glyph glyph-name="NULL" horiz-adv-x="0" 
 />
    <glyph glyph-name="NULL" horiz-adv-x="0" 
 />
    <glyph glyph-name="CR" unicode="&#xd;" horiz-adv-x="271" 
 />
    <glyph glyph-name="space" unicode=" " horiz-adv-x="271" 
 />
    <glyph glyph-name="exclam" unicode="!" horiz-adv-x="248" 
d="M125 203q-19 0 -29.5 12t-12.5 34l-30 382q-3 37 16 59.5t56 22.5q36 0 54.5 -22.5t15.5 -59.5l-30 -382q-1 -22 -11.5 -34t-28.5 -12zM125 -5q-34 0 -54.5 21t-20.5 54q0 32 20.5 52.5t54.5 20.5q35 0 54.5 -20.5t19.5 -52.5q0 -33 -19.5 -54t-54.5 -21z" />
    <glyph glyph-name="quotedbl" unicode="&#x22;" horiz-adv-x="448" 
d="M122 407q-18 0 -31.5 13t-15.5 35l-19 185q-3 31 16 52t50 21q20 0 35.5 -9.5t23.5 -26t6 -37.5l-19 -185q-2 -22 -14.5 -35t-31.5 -13zM327 407q-18 0 -31.5 13t-15.5 35l-19 185q-3 31 16 52t50 21q20 0 35.5 -9.5t23.5 -26t6 -37.5l-19 -185q-2 -22 -14.5 -35
t-31.5 -13z" />
    <glyph glyph-name="numbersign" unicode="#" 
d="M126 -8q-23 0 -31.5 14t-4.5 37l26 137l42 -8h-72q-15 0 -25.5 4.5t-16 13.5t-5.5 22q0 20 12.5 30t34.5 10h87l-45 -9l45 228l31 -10h-97q-15 0 -25.5 5t-16 14t-5.5 22q0 20 12.5 29.5t34.5 9.5h112l-36 -9l28 139q5 22 17.5 32t32.5 10q21 0 30.5 -13.5t4.5 -37.5
l-24 -121h126l26 130q5 22 17.5 32t32.5 10q21 0 30.5 -13.5t4.5 -37.5l-26 -130l-30 9h61q15 0 25.5 -4.5t16 -13t5.5 -21.5q0 -19 -12 -30t-35 -11h-77l35 10l-45 -228l-31 9h97q15 0 25.5 -4.5t16 -13.5t5.5 -22q0 -19 -12 -29.5t-35 -10.5h-112l36 8l-30 -146
q-4 -22 -16.5 -32t-32.5 -10q-21 0 -30.5 13.5t-5.5 37.5l26 129h-126l-27 -138q-4 -22 -16.5 -32t-32.5 -10zM217 252h125l41 209h-125z" />
    <glyph glyph-name="dollar" unicode="$" 
d="M310 -123q-22 0 -36 14.5t-14 35.5v89l23 -22q-69 2 -122.5 18t-90.5 37q-18 11 -25 27.5t-5 33.5t12.5 29.5t26.5 16t37 -8.5q28 -16 73.5 -30.5t109.5 -14.5q50 0 81 12t45.5 33t14.5 48q0 22 -10 38.5t-33 29t-62 20.5l-106 23q-91 20 -136 67t-45 123q0 59 29 105.5
t81 74.5t122 33l-20 -15v84q0 21 14 35.5t36 14.5q21 0 35.5 -14.5t14.5 -35.5v-84l-21 16q43 -1 94.5 -17t88.5 -45q15 -12 20 -27.5t1 -30t-15 -24.5t-27.5 -11.5t-37.5 10.5q-29 17 -65 27.5t-86 10.5q-64 0 -100.5 -28.5t-36.5 -74.5q0 -34 22 -54.5t75 -32.5l109 -24
q96 -21 141 -66.5t45 -119.5q0 -58 -29 -102.5t-79.5 -71t-117.5 -33.5l19 21v-90q0 -21 -14 -35.5t-36 -14.5z" />
    <glyph glyph-name="percent" unicode="%" horiz-adv-x="945" 
d="M329 8q-10 -18 -24.5 -23.5t-29 -2t-24.5 14t-12 26t8 33.5l369 640q10 18 24.5 24t28.5 2.5t24 -14.5t12.5 -26.5t-7.5 -32.5zM222 284q-84 0 -131 58t-47 158q0 67 21 115t61 74t96 26q84 0 131 -57.5t47 -157.5q0 -67 -21 -115.5t-61 -74.5t-96 -26zM222 368
q24 0 41 14.5t26 43.5t9 74q0 67 -20 99t-56 32q-24 0 -41 -14t-26 -43t-9 -74q0 -68 20 -100t56 -32zM724 -10q-84 0 -131 58t-47 158q0 67 21 115t61 74t96 26q84 0 131 -57.5t47 -157.5q0 -67 -21 -115.5t-61 -74.5t-96 -26zM724 74q24 0 41 14t26 43.5t9 74.5
q0 67 -20 99t-56 32q-24 0 -41 -14t-26 -43t-9 -74q0 -68 20 -100t56 -32z" />
    <glyph glyph-name="ampersand" unicode="&#x26;" horiz-adv-x="726" 
d="M301 -10q-75 0 -130 24t-84.5 66.5t-29.5 99.5q0 34 9.5 63.5t28 55t45 48t60.5 42.5l34 20l-18 -27q-44 44 -63.5 83.5t-19.5 81.5q0 50 24 88t68 59t103 21q82 0 130 -41.5t48 -112.5q0 -38 -15 -72t-48 -65t-88 -61l1 30l170 -181h-27q13 22 23 48.5t17.5 57
t11.5 63.5q4 25 17 37.5t37 12.5q26 0 39 -14.5t10 -41.5q-5 -47 -16.5 -89.5t-28.5 -79t-38 -67.5l-1 31l95 -96q19 -19 19 -38t-14.5 -31.5t-39.5 -12.5q-22 0 -36 8.5t-31 25.5l-62 65h29q-44 -47 -103.5 -74t-125.5 -27zM308 89q48 0 85.5 18.5t68.5 55.5l-3 -32
l-206 213l52 -5l-29 -17q-34 -20 -55 -39.5t-30.5 -42t-9.5 -50.5q0 -47 33 -74t94 -27zM328 626q-36 0 -58 -20.5t-22 -55.5q0 -19 6 -35.5t21 -36t41 -47.5l-28 2q42 24 66.5 43t35.5 38t11 42q0 34 -20 52t-53 18z" />
    <glyph glyph-name="quotesingle" unicode="'" horiz-adv-x="243" 
d="M122 407q-18 0 -31.5 13t-15.5 35l-19 185q-3 31 16 52t50 21q20 0 35.5 -9.5t23.5 -26t6 -37.5l-19 -185q-2 -22 -14.5 -35t-31.5 -13z" />
    <glyph glyph-name="parenleft" unicode="(" horiz-adv-x="358" 
d="M217 -163q-62 98 -89.5 206.5t-27.5 219.5q0 74 12 147t38 143.5t67 135.5q11 18 29.5 22.5t35 -2.5t24.5 -25.5t-2 -46.5q-24 -64 -39.5 -125.5t-23 -122.5t-7.5 -126t8 -126t24 -122t38 -126q10 -28 2 -46.5t-24.5 -25.5t-35 -2.5t-29.5 22.5z" />
    <glyph glyph-name="parenright" unicode=")" horiz-adv-x="358" 
d="M141 -163q-11 -18 -29.5 -22.5t-35.5 3t-24.5 25.5t2.5 46q25 65 40 126t22.5 122t7.5 126t-8 126t-23.5 122t-38.5 126q-10 28 -2 46.5t25 25.5t35 2.5t29 -22.5q61 -97 89 -206t28 -220q0 -74 -12.5 -147t-38 -143.5t-66.5 -135.5z" />
    <glyph glyph-name="asterisk" unicode="*" horiz-adv-x="453" 
d="M126 358q-18 11 -21 28t10 36l64 98l18 -26l-117 -6q-23 -1 -37 9.5t-14 31.5q0 20 14 31t37 9l117 -7l-17 -26l-64 99q-13 20 -10 37t21 27q17 11 34 3t27 -29l46 -96h-15l46 96q10 21 27 29t35 -3t20.5 -28t-10.5 -37l-64 -97l-17 25l117 7q23 2 37 -9t14 -31
q0 -21 -14 -31.5t-37 -9.5l-117 6l17 26l64 -98q13 -19 10.5 -35.5t-20.5 -27.5q-19 -11 -35.5 -3.5t-26.5 28.5l-46 97h15l-47 -97q-10 -21 -26.5 -28.5t-34.5 2.5z" />
    <glyph glyph-name="plus" unicode="+" 
d="M300 32q-22 0 -34 12.5t-12 34.5v164h-161q-21 0 -33 11.5t-12 32.5t12 32.5t33 11.5h161v159q0 22 12 34t35 12q22 0 33.5 -12t11.5 -34v-159h161q22 0 33.5 -11.5t11.5 -32.5t-11.5 -32.5t-33.5 -11.5h-161v-164q0 -22 -11.5 -34.5t-34.5 -12.5z" />
    <glyph glyph-name="comma" unicode="," horiz-adv-x="248" 
d="M141 -107q-13 -16 -27.5 -18.5t-25.5 5.5t-12 22.5t13 31.5q20 25 27 50t7 45l5 -34q-35 0 -56.5 20.5t-21.5 54.5q0 32 20 52.5t54 20.5q35 0 55 -23.5t20 -67.5q0 -24 -4.5 -49.5t-17 -53t-36.5 -56.5z" />
    <glyph glyph-name="hyphen" unicode="-" horiz-adv-x="434" 
d="M111 218q-22 0 -36.5 14.5t-14.5 35.5q0 22 14.5 36t36.5 14h213q21 0 35.5 -14t14.5 -36q0 -21 -14.5 -35.5t-35.5 -14.5h-213z" />
    <glyph glyph-name="period" unicode="." horiz-adv-x="248" 
d="M125 -5q-34 0 -54.5 21t-20.5 54q0 32 20.5 52.5t54.5 20.5q35 0 54.5 -20.5t19.5 -52.5q0 -33 -19.5 -54t-54.5 -21z" />
    <glyph glyph-name="slash" unicode="/" horiz-adv-x="313" 
d="M88 -29q-6 -19 -19 -27.5t-28.5 -8.5t-28.5 8t-18.5 22.5t0.5 34.5l231 717q6 19 19.5 28t28.5 8.5t28 -8.5t18.5 -22t-0.5 -34z" />
    <glyph glyph-name="zero" unicode="0" 
d="M300 -10q-125 0 -191 94.5t-66 269.5q0 118 29.5 198.5t87 121.5t140.5 41q126 0 191.5 -92t65.5 -268q0 -117 -29.5 -198.5t-86.5 -124t-141 -42.5zM300 95q68 0 100.5 63t32.5 197t-32.5 194.5t-100.5 60.5q-67 0 -100 -60.5t-33 -194.5t33 -197t100 -63z" />
    <glyph glyph-name="one" unicode="1" 
d="M156 0q-26 0 -40.5 14.5t-14.5 39.5q0 26 14.5 39t40.5 13h112v491h62l-147 -89q-19 -11 -35.5 -8.5t-28 14t-15.5 27.5t2.5 32.5t25.5 27.5l138 83q20 12 40 20.5t37 8.5q21 0 35 -11.5t14 -37.5v-558h102q26 0 40.5 -13t14.5 -39t-14.5 -40t-40.5 -14h-342z" />
    <glyph glyph-name="two" unicode="2" 
d="M133 0q-32 0 -46.5 14.5t-14.5 42.5q0 17 9 33t26 34l201 214q46 48 66 87.5t20 79.5q0 50 -31.5 76t-91.5 26q-34 0 -68 -9.5t-69 -32.5q-18 -12 -33.5 -10t-27 13t-15.5 27t1.5 32.5t23.5 28.5q43 29 96.5 44t107.5 15q76 0 128 -23t79 -67t27 -107q0 -42 -13.5 -82
t-41 -81t-71.5 -87l-188 -196v34h294q27 0 41 -13t14 -39t-14 -40t-41 -14h-368z" />
    <glyph glyph-name="three" unicode="3" 
d="M286 -10q-54 0 -112 14t-101 42q-20 13 -27 30t-3.5 32.5t15 26.5t29 13t38.5 -9q41 -22 79 -31.5t78 -9.5q44 0 74 12t45.5 36t15.5 58q0 50 -33.5 74.5t-97.5 24.5h-64q-28 0 -42.5 14t-14.5 39t14.5 39t42.5 14h52q38 0 65 12.5t42 35.5t15 56q0 46 -30.5 70t-88.5 24
q-37 0 -69.5 -8.5t-71.5 -31.5q-18 -11 -34.5 -9t-27.5 13t-15 26.5t2 32t25 28.5q43 28 95 42.5t107 14.5q73 0 125 -22.5t79.5 -64t27.5 -100.5q0 -42 -16 -76.5t-45 -58.5t-70 -34v12q72 -12 112 -59.5t40 -118.5q0 -62 -31 -108t-88 -70.5t-136 -24.5z" />
    <glyph glyph-name="four" unicode="4" 
d="M413 -8q-30 0 -47 16.5t-17 47.5v78h-247q-31 0 -49.5 13t-18.5 41q0 16 8.5 35t30.5 50l274 397q14 21 31 32t39 11q26 0 43 -15.5t17 -48.5v-409h49q29 0 43.5 -13.5t14.5 -39.5t-14.5 -39.5t-43.5 -13.5h-49v-78q0 -31 -17 -47.5t-47 -16.5zM349 240v312h29l-236 -346
v34h207z" />
    <glyph glyph-name="five" unicode="5" 
d="M306 -10q-53 0 -108 14t-101 43q-19 12 -25.5 28.5t-3 33t15 28t28 13.5t36.5 -9q37 -21 75 -32t81 -11q42 0 72 15t46 42t16 63q0 56 -34 90.5t-93 34.5q-32 0 -62 -10.5t-59 -36.5q-9 -8 -23 -15.5t-30 -7.5q-25 0 -38 13t-13 36v327q0 27 14.5 41.5t41.5 14.5h329
q27 0 41.5 -13.5t14.5 -39.5q0 -25 -14.5 -39t-41.5 -14h-260v-224h-33q26 35 69 54t94 19q67 0 116.5 -28.5t77 -79t27.5 -117.5q0 -69 -31 -121.5t-88.5 -82t-136.5 -29.5z" />
    <glyph glyph-name="six" unicode="6" 
d="M326 -10q-87 0 -148.5 41.5t-93.5 119.5t-32 189q0 90 20.5 159.5t59.5 117.5t95.5 73t127.5 25q44 0 89.5 -13.5t85.5 -40.5q16 -10 21 -26t1.5 -31.5t-14 -27t-26.5 -14t-35 8.5q-34 20 -64 28t-60 8q-58 0 -98 -27t-60.5 -81t-20.5 -135v-75h-12q8 51 33.5 87.5
t65.5 56t89 19.5q61 0 108 -29t74 -80t27 -117q0 -68 -29.5 -121.5t-82 -84t-121.5 -30.5zM319 92q36 0 63.5 16t42.5 45.5t15 67.5q0 39 -15 68t-42.5 45.5t-63.5 16.5t-63 -16.5t-42.5 -45.5t-15.5 -68q0 -38 15.5 -67.5t42.5 -45.5t63 -16z" />
    <glyph glyph-name="seven" unicode="7" 
d="M172 -8q-23 0 -38 11t-18 29.5t9 41.5l302 568v-44h-324q-27 0 -41.5 14t-14.5 39q0 26 14.5 40t41.5 14h387q27 0 44 -14t17 -40q0 -22 -6 -38.5t-16 -35.5l-284 -543q-11 -22 -28.5 -32t-44.5 -10z" />
    <glyph glyph-name="eight" unicode="8" 
d="M300 -10q-82 0 -140.5 23.5t-90 68.5t-31.5 108q0 50 20.5 88.5t56.5 62.5t82 30v-21q-64 14 -102.5 61.5t-38.5 113.5q0 60 30 102.5t85 65t129 22.5q75 0 130 -22.5t85 -65t30 -102.5q0 -44 -17.5 -81t-49 -61t-73.5 -32v20q70 -10 113.5 -58.5t43.5 -122.5
q0 -63 -31.5 -108t-90 -68.5t-140.5 -23.5zM300 90q71 0 107 27.5t36 81.5t-36 81t-107 27q-70 0 -106.5 -27t-36.5 -81t36.5 -81.5t106.5 -27.5zM300 407q40 0 68 12.5t43 36.5t15 56q0 48 -33.5 75.5t-92.5 27.5t-92 -27.5t-33 -75.5q0 -49 33 -77t92 -28z" />
    <glyph glyph-name="nine" unicode="9" 
d="M245 -10q-43 0 -89 13.5t-86 40.5q-16 10 -21 26t-1.5 31.5t14 27t26.5 14t35 -8.5q34 -20 64 -28t60 -8q58 0 98 27t60.5 81.5t20.5 134.5v75h12q-7 -50 -33 -87t-66 -56.5t-89 -19.5q-60 0 -107.5 29t-74.5 80.5t-27 116.5q0 69 29.5 122t82.5 83.5t121 30.5
q88 0 149 -41t93 -119.5t32 -189.5q0 -90 -20.5 -159.5t-59.5 -117.5t-95.5 -73t-127.5 -25zM282 355q36 0 63.5 16.5t42.5 46t15 67.5q0 39 -15 68t-42.5 45t-63.5 16t-63 -16t-42.5 -45t-15.5 -68q0 -38 15.5 -67.5t42.5 -46t63 -16.5z" />
    <glyph glyph-name="colon" unicode=":" horiz-adv-x="248" 
d="M125 -5q-34 0 -54.5 21t-20.5 54q0 32 20.5 52.5t54.5 20.5q35 0 54.5 -20.5t19.5 -52.5q0 -33 -19.5 -54t-54.5 -21zM125 346q-34 0 -54.5 21t-20.5 53q0 33 20.5 53.5t54.5 20.5q35 0 54.5 -20.5t19.5 -53.5q0 -32 -19.5 -53t-54.5 -21z" />
    <glyph glyph-name="semicolon" unicode=";" horiz-adv-x="248" 
d="M141 -107q-13 -16 -27.5 -18.5t-25.5 5.5t-12 22.5t13 31.5q20 25 27 50t7 45l5 -34q-35 0 -56.5 20.5t-21.5 54.5q0 32 20 52.5t54 20.5q35 0 55 -23.5t20 -67.5q0 -24 -4.5 -49.5t-17 -53t-36.5 -56.5zM125 346q-34 0 -54.5 21t-20.5 53q0 33 20.5 53.5t54.5 20.5
q35 0 54.5 -20.5t19.5 -53.5q0 -32 -19.5 -53t-54.5 -21z" />
    <glyph glyph-name="less" unicode="&#x3c;" 
d="M498 53l-400 169q-46 19 -46 66q0 23 11.5 38.5t34.5 25.5l400 170q17 7 30.5 3t21.5 -15t9 -25t-5.5 -26.5t-23.5 -19.5l-436 -183v62l436 -183q17 -7 23.5 -19.5t5.5 -26t-9 -24.5t-21.5 -15t-30.5 3z" />
    <glyph glyph-name="equal" unicode="=" 
d="M93 343q-21 0 -33 11.5t-12 32.5t12 32.5t33 11.5h414q22 0 33.5 -11.5t11.5 -32.5t-11.5 -32.5t-33.5 -11.5h-414zM93 144q-21 0 -33 11.5t-12 32.5t12 32t33 11h414q22 0 33.5 -11t11.5 -32q0 -22 -11.5 -33t-33.5 -11h-414z" />
    <glyph glyph-name="greater" unicode="&#x3e;" 
d="M103 53q-17 -7 -30.5 -3t-21.5 15t-9 24.5t6 26t23 19.5l436 183v-62l-436 183q-16 7 -23 19.5t-6 26.5t9 25t21.5 15t30.5 -3l400 -170q46 -19 46 -64q0 -23 -11.5 -39.5t-34.5 -26.5z" />
    <glyph glyph-name="question" unicode="?" horiz-adv-x="459" 
d="M223 204q-19 0 -29.5 12.5t-10.5 33.5q0 31 7.5 58.5t24.5 55.5t45 59q21 24 33.5 42.5t18 35.5t5.5 35q0 33 -24 52t-68 19q-40 0 -72.5 -10.5t-65.5 -29.5q-22 -13 -39.5 -11.5t-28.5 12.5t-14 27t5 33t29 31q41 27 94 41.5t100 14.5q63 0 110.5 -21t74 -58t26.5 -87
q0 -31 -9 -58.5t-29 -55t-55 -59.5q-31 -28 -49.5 -51t-27 -44t-11.5 -45q-1 -14 -11.5 -23t-28.5 -9zM221 -5q-34 0 -54.5 21t-20.5 54q0 32 20.5 52.5t54.5 20.5q35 0 54.5 -20.5t19.5 -52.5q0 -33 -19.5 -54t-54.5 -21z" />
    <glyph glyph-name="at" unicode="@" horiz-adv-x="950" 
d="M486 -165q-96 0 -175.5 30.5t-137 88t-88.5 137t-31 177.5q0 101 32 183t92 141t142.5 91t182.5 32q118 0 206.5 -46.5t137.5 -130t49 -196.5q0 -87 -24.5 -150.5t-68 -98t-101.5 -34.5q-61 0 -94.5 33.5t-35.5 93.5l31 10q-25 -68 -71 -102.5t-100 -34.5q-80 0 -124 50
t-44 137q0 73 27.5 130t76 90t110.5 33q53 0 87 -26.5t46 -77.5h-17l9 54q7 43 52 43q23 0 34.5 -13t6.5 -38l-34 -193q-3 -16 -4.5 -29.5t-1.5 -24.5q0 -31 13 -46t39 -15q33 0 57.5 26t38.5 73.5t14 109.5q0 93 -38.5 159t-109 101.5t-168.5 35.5q-109 0 -190 -45.5
t-126 -128.5t-45 -196q0 -111 42.5 -191t120 -122.5t182.5 -42.5q66 0 119.5 15.5t96.5 45.5q18 13 33.5 9.5t23.5 -16.5t5.5 -29t-20.5 -29q-46 -33 -111.5 -53t-146.5 -20zM450 138q38 0 67.5 23.5t46 65t16.5 95.5q0 48 -21 72.5t-65 24.5q-38 0 -68 -22t-47 -60.5
t-17 -89.5q0 -53 23 -81t65 -28z" />
    <glyph glyph-name="A" unicode="A" horiz-adv-x="744" 
d="M84 -8q-24 0 -38.5 11t-17.5 29.5t7 41.5l264 585q13 29 31.5 41.5t42.5 12.5q23 0 41.5 -12.5t31.5 -41.5l265 -585q11 -23 8 -42t-17 -29.5t-37 -10.5q-28 0 -43.5 13.5t-27.5 41.5l-65 151l54 -35h-422l54 35l-64 -151q-13 -29 -27 -42t-40 -13zM371 566l-140 -333
l-26 32h334l-25 -32l-141 333h-2z" />
    <glyph glyph-name="B" unicode="B" horiz-adv-x="688" 
d="M145 0q-33 0 -50.5 17.5t-17.5 50.5v569q0 33 17.5 50.5t50.5 17.5h240q74 0 126 -22t79.5 -63t27.5 -98q0 -64 -37 -108t-101 -59v15q74 -11 115 -56t41 -117q0 -94 -63.5 -145.5t-176.5 -51.5h-251zM200 97h180q68 0 100 26.5t32 79.5q0 54 -32 80t-100 26h-180v-212z
M200 406h163q66 0 98.5 25.5t32.5 75.5t-32.5 75.5t-98.5 25.5h-163v-202z" />
    <glyph glyph-name="C" unicode="C" horiz-adv-x="680" 
d="M405 -10q-110 0 -188.5 44.5t-120.5 126t-42 192.5q0 83 24 149.5t69 114t110.5 73t147.5 25.5q55 0 108 -14t93 -40q21 -13 28 -31.5t3 -36t-16.5 -29.5t-31 -13.5t-40.5 12.5q-31 20 -67 29t-73 9q-71 0 -120 -29t-74 -84t-25 -135q0 -79 25 -135t74 -85t120 -29
q38 0 75 9.5t70 29.5q22 13 39.5 11.5t29.5 -12.5t16 -27.5t-2 -34t-24 -30.5q-40 -29 -95.5 -44.5t-112.5 -15.5z" />
    <glyph glyph-name="D" unicode="D" horiz-adv-x="762" 
d="M145 0q-33 0 -50.5 17.5t-17.5 50.5v569q0 33 17.5 50.5t50.5 17.5h194q177 0 273.5 -91t96.5 -261q0 -85 -24.5 -150.5t-72 -110.5t-116 -68.5t-157.5 -23.5h-194zM205 106h126q62 0 107.5 15.5t76 46t45.5 77t15 108.5q0 124 -61 185t-183 61h-126v-493z" />
    <glyph glyph-name="E" unicode="E" horiz-adv-x="597" 
d="M145 0q-33 0 -50.5 17.5t-17.5 50.5v569q0 33 17.5 50.5t50.5 17.5h357q25 0 38.5 -13t13.5 -37q0 -25 -13.5 -38.5t-38.5 -13.5h-302v-194h280q26 0 39 -13t13 -38t-13 -38t-39 -13h-280v-205h302q25 0 38.5 -13t13.5 -38t-13.5 -38t-38.5 -13h-357z" />
    <glyph glyph-name="F" unicode="F" horiz-adv-x="562" 
d="M143 -8q-31 0 -48.5 17.5t-17.5 50.5v577q0 33 17.5 50.5t50.5 17.5h349q26 0 39 -13t13 -37q0 -25 -13 -38.5t-39 -13.5h-289v-199h268q25 0 38.5 -13t13.5 -37q0 -25 -13.5 -38.5t-38.5 -13.5h-268v-242q0 -68 -62 -68z" />
    <glyph glyph-name="G" unicode="G" horiz-adv-x="736" 
d="M416 -10q-117 0 -197.5 44t-122.5 125t-42 192q0 84 24.5 151t71 114.5t113.5 73t152 25.5q56 0 112.5 -13.5t106.5 -45.5q17 -11 22.5 -27t1.5 -32.5t-15 -28.5t-27.5 -15t-36.5 8q-38 22 -77 32t-87 10q-74 0 -125 -29.5t-76.5 -85.5t-25.5 -137q0 -123 59 -187
t175 -64q40 0 81 8t80 22l-25 -57v213h-110q-25 0 -38.5 13t-13.5 35q0 23 13.5 35t38.5 12h165q25 0 38.5 -13.5t13.5 -38.5v-243q0 -22 -8.5 -37t-27.5 -22q-44 -16 -101 -26.5t-112 -10.5z" />
    <glyph glyph-name="H" unicode="H" horiz-adv-x="773" 
d="M141 -8q-31 0 -47.5 17.5t-16.5 48.5v589q0 32 16.5 49t47.5 17t47.5 -17t16.5 -49v-236h363v236q0 32 16.5 49t47.5 17t47.5 -17t16.5 -49v-589q0 -31 -16.5 -48.5t-47.5 -17.5t-47.5 17.5t-16.5 48.5v246h-363v-246q0 -31 -16 -48.5t-48 -17.5z" />
    <glyph glyph-name="I" unicode="I" horiz-adv-x="282" 
d="M141 -8q-31 0 -47.5 17.5t-16.5 48.5v589q0 32 16.5 49t47.5 17t47.5 -17t16.5 -49v-589q0 -31 -16 -48.5t-48 -17.5z" />
    <glyph glyph-name="J" unicode="J" horiz-adv-x="354" 
d="M46 -7q-28 -1 -44 15t-16 41q0 19 11.5 33.5t33.5 15.5l30 2q44 3 66.5 27.5t22.5 70.5v450q0 32 16.5 48.5t47.5 16.5t47.5 -16.5t16.5 -48.5v-449q0 -63 -22.5 -107t-66.5 -68.5t-109 -28.5z" />
    <glyph glyph-name="K" unicode="K" horiz-adv-x="665" 
d="M141 -8q-31 0 -47.5 17.5t-16.5 48.5v590q0 32 16.5 48.5t47.5 16.5t47.5 -16.5t16.5 -48.5v-255h2l287 288q16 16 32 24t36 8q29 0 41.5 -15t10 -35t-19.5 -37l-292 -289l1 58l305 -310q21 -20 22 -42t-13.5 -36.5t-42.5 -14.5q-24 0 -38.5 10t-33.5 29l-295 295h-2
v-268q0 -31 -16 -48.5t-48 -17.5z" />
    <glyph glyph-name="L" unicode="L" horiz-adv-x="562" 
d="M142 0q-31 0 -48 17.5t-17 48.5v577q0 32 16.5 48.5t47.5 16.5t47.5 -16.5t16.5 -48.5v-534h290q27 0 41.5 -14t14.5 -40t-14.5 -40.5t-41.5 -14.5h-353z" />
    <glyph glyph-name="M" unicode="M" horiz-adv-x="868" 
d="M137 -8q-28 0 -43 16t-15 44v601q0 29 16 44.5t44 15.5q25 0 39.5 -9.5t26.5 -32.5l247 -457h-32l247 457q12 23 26 32.5t39 9.5q28 0 43 -15.5t15 -44.5v-601q0 -28 -14.5 -44t-43.5 -16q-28 0 -43 16t-15 44v463h22l-210 -383q-10 -17 -21 -25t-30 -8t-31 8.5t-21 24.5
l-212 384h24v-464q0 -28 -14.5 -44t-43.5 -16z" />
    <glyph glyph-name="N" unicode="N" horiz-adv-x="748" 
d="M137 -8q-29 0 -44.5 16t-15.5 46v595q0 31 15.5 47.5t40.5 16.5q23 0 34.5 -8.5t27.5 -28.5l383 -497h-26v473q0 29 15.5 45t44.5 16t44 -16t15 -45v-600q0 -28 -14 -44t-38 -16q-23 0 -36.5 9t-29.5 29l-382 497h25v-473q0 -30 -15 -46t-44 -16z" />
    <glyph glyph-name="O" unicode="O" horiz-adv-x="785" 
d="M393 -10q-102 0 -178.5 45t-118.5 126.5t-42 191.5q0 83 24 149.5t68.5 114t107 73t139.5 25.5q103 0 179 -44.5t118 -125.5t42 -191q0 -83 -24 -150t-68.5 -115t-107 -73.5t-139.5 -25.5zM393 100q65 0 110.5 30t70 87t24.5 136q0 120 -53.5 186t-151.5 66
q-64 0 -110 -29.5t-70.5 -86t-24.5 -136.5q0 -119 54 -186t151 -67z" />
    <glyph glyph-name="P" unicode="P" horiz-adv-x="652" 
d="M141 -8q-31 0 -47.5 17.5t-16.5 48.5v582q0 32 17 48.5t48 16.5h241q116 0 179 -58t63 -162t-63 -162.5t-179 -58.5h-178v-206q0 -31 -16 -48.5t-48 -17.5zM205 365h158q68 0 103 30.5t35 89.5t-35 89t-103 30h-158v-239z" />
    <glyph glyph-name="Q" unicode="Q" horiz-adv-x="785" 
d="M663 -113q14 -22 11 -40t-16 -30.5t-32 -16t-38 4t-32 28.5l-69 111q-14 23 -37.5 34.5t-57.5 11.5l99 39q47 0 75 -16.5t54 -57.5zM393 -10q-102 0 -178.5 45t-118.5 126.5t-42 191.5q0 83 24 149.5t68.5 114t107 73t139.5 25.5q103 0 179 -44.5t118 -125.5t42 -191
q0 -83 -24 -150t-68.5 -115t-107 -73.5t-139.5 -25.5zM393 100q65 0 110.5 30t70 87t24.5 136q0 120 -53.5 186t-151.5 66q-64 0 -110 -29.5t-70.5 -86t-24.5 -136.5q0 -119 54 -186t151 -67z" />
    <glyph glyph-name="R" unicode="R" horiz-adv-x="686" 
d="M141 -8q-31 0 -47.5 17.5t-16.5 48.5v582q0 32 17 48.5t48 16.5h241q116 0 179 -55.5t63 -155.5q0 -65 -28.5 -112t-82.5 -72t-131 -25l9 15h33q41 0 71.5 -20t53.5 -63l75 -139q12 -21 11 -41t-15 -32.5t-41 -12.5t-44 11.5t-30 35.5l-101 186q-18 34 -42.5 45.5
t-62.5 11.5h-95v-224q0 -31 -16 -48.5t-48 -17.5zM205 377h156q69 0 104.5 28.5t35.5 85.5q0 56 -35.5 84.5t-104.5 28.5h-156v-227z" />
    <glyph glyph-name="S" unicode="S" horiz-adv-x="631" 
d="M320 -10q-44 0 -88 6.5t-83 20t-70 33.5q-18 12 -25 29t-4.5 33.5t13 29t26.5 15.5t35 -9q44 -26 93 -38t103 -12q79 0 115 26.5t36 68.5q0 35 -25.5 55t-87.5 33l-110 23q-95 20 -141.5 67.5t-46.5 125.5q0 49 20 89t56.5 69t87 44.5t111.5 15.5q60 0 114 -15t97 -44
q16 -11 21.5 -27t2.5 -31.5t-14 -26.5t-27.5 -13t-37.5 10q-37 21 -75 30t-82 9q-46 0 -79 -13t-50.5 -36.5t-17.5 -55.5q0 -36 24 -57.5t82 -33.5l109 -23q99 -21 147.5 -66t48.5 -120q0 -48 -19.5 -87t-56 -67t-87.5 -43t-115 -15z" />
    <glyph glyph-name="T" unicode="T" horiz-adv-x="621" 
d="M311 -8q-31 0 -47.5 17.5t-16.5 48.5v540h-195q-26 0 -40.5 14.5t-14.5 39.5q0 26 14.5 39.5t40.5 13.5h518q26 0 40.5 -13.5t14.5 -39.5q0 -25 -14.5 -39.5t-40.5 -14.5h-195v-540q0 -31 -16 -48.5t-48 -17.5z" />
    <glyph glyph-name="U" unicode="U" horiz-adv-x="738" 
d="M370 -10q-73 0 -128.5 19t-93.5 56.5t-57 93.5t-19 130v359q0 33 16.5 49t47.5 16t47.5 -16t16.5 -49v-358q0 -95 43.5 -142.5t126.5 -47.5t126 47.5t43 142.5v358q0 33 16.5 49t47.5 16q30 0 46.5 -16t16.5 -49v-359q0 -98 -33.5 -165t-99.5 -100.5t-163 -33.5z" />
    <glyph glyph-name="V" unicode="V" horiz-adv-x="713" 
d="M357 -8q-27 0 -44.5 12.5t-28.5 37.5l-261 586q-11 25 -6 44t21 30t38 11q29 0 43.5 -12.5t24.5 -37.5l237 -549h-43l236 550q11 24 26 36.5t42 12.5q22 0 36.5 -11t18.5 -30t-7 -44l-261 -586q-11 -25 -27.5 -37.5t-44.5 -12.5z" />
    <glyph glyph-name="W" unicode="W" horiz-adv-x="1113" 
d="M325 -8q-27 0 -43.5 13t-26.5 41l-209 591q-11 32 4.5 54t52.5 22q27 0 42 -12.5t24 -39.5l180 -534h-40l188 533q10 27 25 40t39 13t38 -13t24 -41l182 -532h-35l183 534q9 26 24 39t41 13q32 0 47 -22t4 -54l-211 -592q-10 -27 -26 -40t-43 -13t-43 13t-26 41l-174 496
h23l-176 -497q-10 -27 -25.5 -40t-42.5 -13z" />
    <glyph glyph-name="X" unicode="X" horiz-adv-x="672" 
d="M101 -8q-25 0 -41 13.5t-18.5 34t13.5 41.5l229 305v-55l-218 292q-16 22 -14 42.5t18 34t40 13.5q20 0 35.5 -9.5t31.5 -31.5l180 -248h-41l179 248q16 22 31.5 31.5t36.5 9.5q25 0 41 -13t18 -33.5t-15 -43.5l-218 -292v55l228 -305q16 -21 14 -41.5t-18 -34t-42 -13.5
q-19 0 -34.5 10t-32.5 32l-190 260h44l-189 -260q-16 -22 -32 -32t-36 -10z" />
    <glyph glyph-name="Y" unicode="Y" horiz-adv-x="618" 
d="M309 -8q-31 0 -47.5 17.5t-16.5 49.5v304l27 -77l-241 339q-13 18 -11.5 38.5t16.5 35t42 14.5q20 0 36.5 -10t31.5 -31l179 -254h-28l180 254q16 22 31 31.5t37 9.5q26 0 40.5 -13.5t15 -33.5t-14.5 -42l-239 -338l26 77v-304q0 -67 -64 -67z" />
    <glyph glyph-name="Z" unicode="Z" horiz-adv-x="605" 
d="M106 0q-25 0 -40.5 10t-21 27.5t0 39t22.5 44.5l382 518v-41h-353q-28 0 -42.5 14t-14.5 40t14.5 39.5t42.5 13.5h414q25 0 40.5 -10t21 -27t0 -39t-22.5 -45l-382 -517v40h368q28 0 42.5 -13.5t14.5 -39.5t-14.5 -40t-42.5 -14h-429z" />
    <glyph glyph-name="bracketleft" unicode="[" horiz-adv-x="354" 
d="M159 -180q-22 0 -37.5 15t-15.5 37v781q0 23 15.5 37.5t37.5 14.5h143q23 0 35.5 -13.5t12.5 -33.5t-12.5 -33.5t-35.5 -13.5h-71v-697h71q23 0 35.5 -13.5t12.5 -33.5t-12.5 -33.5t-35.5 -13.5h-143z" />
    <glyph glyph-name="backslash" unicode="\" horiz-adv-x="313" 
d="M225 -29l-231 718q-6 20 0 34t18.5 22t27.5 8.5t28.5 -8.5t19.5 -28l231 -717q6 -20 0.5 -34.5t-18.5 -22.5t-28.5 -8t-28.5 8.5t-19 27.5z" />
    <glyph glyph-name="bracketright" unicode="]" horiz-adv-x="354" 
d="M52 -180q-22 0 -35 13.5t-13 33.5t13 33.5t35 13.5h71v697h-71q-22 0 -35 13.5t-13 33.5t13 33.5t35 13.5h143q23 0 38 -14.5t15 -37.5v-781q0 -22 -15 -37t-38 -15h-143z" />
    <glyph glyph-name="asciicircum" unicode="^" 
d="M107 132q-30 0 -39.5 18t0.5 43l171 402q9 22 24 31.5t37 9.5q43 0 61 -41l171 -402q11 -25 1.5 -43t-40.5 -18q-16 0 -27 8t-20 30l-176 420h61l-177 -420q-9 -22 -19.5 -30t-27.5 -8z" />
    <glyph glyph-name="underscore" unicode="_" horiz-adv-x="500" 
d="M52 -75q-17 0 -28.5 10.5t-11.5 26.5t11.5 27t28.5 11h397q17 0 28 -11t11 -27t-11 -26.5t-28 -10.5h-397z" />
    <glyph glyph-name="grave" unicode="`" horiz-adv-x="377" 
d="M206 560l-97 140q-11 17 -8.5 32t14 26t27 15t31 -1.5t24.5 -24.5l75 -149q8 -16 3 -29t-18 -20t-27 -5t-24 16z" />
    <glyph glyph-name="a" unicode="a" horiz-adv-x="547" 
d="M226 -10q-53 0 -94.5 20.5t-65 55.5t-23.5 79q0 54 28 85.5t91 45.5t169 14h50v-72h-49q-62 0 -99 -6t-52.5 -20.5t-15.5 -40.5q0 -33 23 -54t64 -21q33 0 58.5 15.5t40.5 42.5t15 62v115q0 50 -22 72t-74 22q-29 0 -62.5 -7t-70.5 -24q-19 -9 -33.5 -5t-22.5 16.5
t-8 27.5t8 29.5t27 21.5q46 19 88.5 27t77.5 8q72 0 118.5 -22t69.5 -66.5t23 -114.5v-240q0 -31 -15 -47.5t-43 -16.5t-43.5 16.5t-15.5 47.5v48h8q-7 -35 -27.5 -60.5t-51.5 -39.5t-71 -14z" />
    <glyph glyph-name="b" unicode="b" 
d="M347 -10q-62 0 -108.5 31t-61.5 83l11 25v-73q0 -31 -16 -47.5t-45 -16.5q-30 0 -46 16.5t-16 47.5v594q0 31 16 47t46 16t46.5 -16t16.5 -47v-260h-12q16 49 62 79t107 30q65 0 113 -31t75 -87.5t27 -135.5q0 -78 -27 -135.5t-75.5 -88.5t-112.5 -31zM312 85q37 0 65 18
t43.5 53.5t15.5 88.5q0 80 -34 119.5t-90 39.5q-37 0 -65 -17.5t-43.5 -53t-15.5 -88.5q0 -79 34 -119.5t90 -40.5z" />
    <glyph glyph-name="c" unicode="c" horiz-adv-x="472" 
d="M291 -10q-77 0 -134 31.5t-88 89.5t-31 136q0 59 17.5 105.5t50.5 79t80 50t105 17.5q33 0 71.5 -9t72.5 -30q16 -10 21 -24t2 -28.5t-12.5 -25t-23.5 -13t-31 6.5q-22 13 -45 19.5t-44 6.5q-33 0 -58 -10.5t-42.5 -30t-26.5 -48.5t-9 -67q0 -74 35.5 -116.5t100.5 -42.5
q21 0 43.5 6t45.5 19q17 9 30.5 6t22.5 -13.5t11 -25t-3.5 -28.5t-20.5 -23q-33 -20 -70 -29t-70 -9z" />
    <glyph glyph-name="d" unicode="d" 
d="M253 -10q-64 0 -112.5 31t-75.5 88.5t-27 135.5q0 79 27 135.5t75.5 87.5t112.5 31q61 0 106.5 -30t61.5 -79h-11v260q0 31 16 47t46 16t46.5 -16t16.5 -47v-594q0 -31 -16 -47.5t-46 -16.5t-46 16.5t-16 47.5v78l11 -30q-15 -52 -61 -83t-108 -31zM288 85q37 0 65 18
t43.5 53.5t15.5 88.5q0 80 -34 119.5t-90 39.5q-37 0 -65 -17.5t-43.5 -53t-15.5 -88.5q0 -79 34 -119.5t90 -40.5z" />
    <glyph glyph-name="e" unicode="e" horiz-adv-x="542" 
d="M306 -10q-83 0 -143 31t-92.5 88t-32.5 135q0 76 31.5 133t87 89.5t126.5 32.5q52 0 93.5 -17t71 -49t45 -77.5t15.5 -102.5q0 -18 -12.5 -27.5t-35.5 -9.5h-321v72h281l-16 -15q0 46 -13.5 77t-39 47.5t-63.5 16.5q-42 0 -71.5 -19.5t-45 -55t-15.5 -84.5v-7
q0 -82 38.5 -122.5t113.5 -40.5q26 0 58.5 6.5t61.5 22.5q21 12 37 10.5t25.5 -11.5t11.5 -24.5t-5.5 -29.5t-25.5 -26q-35 -22 -80.5 -32.5t-84.5 -10.5z" />
    <glyph glyph-name="f" unicode="f" horiz-adv-x="364" 
d="M161 -8q-30 0 -46.5 16.5t-16.5 47.5v339h-46q-24 0 -37 12.5t-13 34.5q0 23 13 35t37 12h82l-36 -33v34q0 103 52 154.5t150 60.5l34 3q20 2 32 -6.5t16 -22t1 -27.5t-12.5 -24.5t-24.5 -11.5l-14 -1q-57 -4 -83 -29t-26 -76v-37l-16 16h101q24 0 37 -12t13 -35
q0 -22 -13 -34.5t-37 -12.5h-85v-339q0 -64 -62 -64z" />
    <glyph glyph-name="g" unicode="g" horiz-adv-x="604" 
d="M293 -190q-54 0 -104.5 10t-91.5 31q-19 10 -25.5 24t-4 28.5t12 25.5t23.5 15t29 -4q44 -22 83.5 -28.5t67.5 -6.5q67 0 100.5 32.5t33.5 96.5v90h9q-15 -51 -62.5 -81.5t-107.5 -30.5q-66 0 -115 30.5t-76 85.5t-27 128q0 55 15.5 99.5t44 76.5t69 49.5t89.5 17.5
q62 0 108.5 -30.5t60.5 -80.5l-10 -25v71q0 31 16.5 47t45.5 16q30 0 46 -16t16 -47v-385q0 -119 -63 -179t-183 -60zM290 107q39 0 67 18t43.5 51.5t15.5 79.5q0 69 -34 108.5t-92 39.5q-39 0 -67 -18t-43.5 -51t-15.5 -79q0 -69 34 -109t92 -40z" />
    <glyph glyph-name="h" unicode="h" horiz-adv-x="585" 
d="M127 -8q-30 0 -46 16.5t-16 47.5v594q0 31 16 47t46 16t46.5 -16t16.5 -47v-259h-14q22 53 68.5 80.5t105.5 27.5t97 -22t57 -66.5t19 -112.5v-242q0 -31 -16 -47.5t-46 -16.5t-46.5 16.5t-16.5 47.5v236q0 57 -21.5 83t-66.5 26q-55 0 -87.5 -34.5t-32.5 -91.5v-219
q0 -64 -63 -64z" />
    <glyph glyph-name="i" unicode="i" horiz-adv-x="255" 
d="M127 -7q-30 0 -46 18t-16 50v367q0 33 16 50.5t46 17.5t46.5 -17.5t16.5 -50.5v-367q0 -32 -16 -50t-47 -18zM127 589q-35 0 -54.5 17.5t-19.5 48.5q0 32 19.5 49t54.5 17q36 0 55 -17t19 -49q0 -31 -19 -48.5t-55 -17.5z" />
    <glyph glyph-name="j" unicode="j" horiz-adv-x="259" 
d="M5 -189q-22 -2 -36 6.5t-19.5 21.5t-3.5 27t11.5 24.5t25.5 11.5q45 4 65.5 25.5t20.5 65.5v441q0 31 16.5 47t46.5 16t46 -16t16 -47v-430q0 -64 -20.5 -105t-62 -62t-106.5 -26zM131 589q-35 0 -54.5 17.5t-19.5 48.5q0 32 19.5 49t54.5 17q36 0 55 -17t19 -49
q0 -31 -19 -48.5t-55 -17.5z" />
    <glyph glyph-name="k" unicode="k" horiz-adv-x="536" 
d="M127 -8q-30 0 -46 16.5t-16 47.5v594q0 31 16 47t46 16t46.5 -16t16.5 -47v-369h2l165 174q20 20 35 31t41 11t39.5 -13.5t13.5 -32.5t-18 -38l-174 -184v52l191 -206q18 -19 16.5 -38.5t-16.5 -32t-38 -12.5q-28 0 -44.5 11t-36.5 33l-174 182h-2v-162q0 -64 -63 -64z
" />
    <glyph glyph-name="l" unicode="l" horiz-adv-x="319" 
d="M232 -10q-83 0 -125 47.5t-42 139.5v473q0 31 16 47t46 16t46.5 -16t16.5 -47v-467q0 -46 19.5 -68t55.5 -22q8 0 15 0.5t14 1.5q14 2 19 -7.5t5 -38.5q0 -25 -10 -39t-33 -17q-10 -1 -21 -2t-22 -1z" />
    <glyph glyph-name="m" unicode="m" horiz-adv-x="877" 
d="M129 -8q-30 0 -46 16.5t-16 47.5v378q0 31 16 47t45 16t45 -16t16 -47v-73l-11 30q20 50 62 79t100 29q59 0 97 -28t53 -86h-14q20 53 66 83.5t106 30.5q56 0 92.5 -22t54.5 -66.5t18 -112.5v-242q0 -31 -16.5 -47.5t-46.5 -16.5t-46 16.5t-16 47.5v237q0 56 -18.5 82
t-62.5 26q-49 0 -77 -34.5t-28 -95.5v-215q0 -31 -16 -47.5t-46 -16.5t-46.5 16.5t-16.5 47.5v237q0 56 -18.5 82t-61.5 26q-49 0 -77 -34.5t-28 -95.5v-215q0 -64 -63 -64z" />
    <glyph glyph-name="n" unicode="n" horiz-adv-x="585" 
d="M127 -8q-30 0 -46 16.5t-16 47.5v378q0 31 16 47t45 16t45 -16t16 -47v-68l-11 25q22 53 68.5 80.5t105.5 27.5t97 -22t57 -66.5t19 -112.5v-242q0 -31 -16 -47.5t-46 -16.5t-46.5 16.5t-16.5 47.5v236q0 57 -21.5 83t-66.5 26q-55 0 -87.5 -34.5t-32.5 -91.5v-219
q0 -64 -63 -64z" />
    <glyph glyph-name="o" unicode="o" horiz-adv-x="576" 
d="M288 -10q-76 0 -132 31t-87 88.5t-31 135.5q0 59 17.5 105.5t50.5 80t79 51t103 17.5q76 0 132 -31t87 -88t31 -135q0 -59 -17.5 -106t-50.5 -80.5t-79 -51t-103 -17.5zM288 85q37 0 65 18t43.5 53.5t15.5 88.5q0 80 -34 119.5t-90 39.5q-37 0 -65 -17.5t-43.5 -53
t-15.5 -88.5q0 -79 34 -119.5t90 -40.5z" />
    <glyph glyph-name="p" unicode="p" 
d="M127 -188q-30 0 -46 16t-16 47v559q0 31 16 47t45 16q30 0 46 -16t16 -47v-78l-11 30q15 51 61.5 82t108.5 31q64 0 112.5 -31t75.5 -87.5t27 -135.5q0 -78 -27 -135.5t-75 -88.5t-113 -31q-61 0 -107 30.5t-62 79.5h12v-225q0 -31 -16.5 -47t-46.5 -16zM312 85
q37 0 65 18t43.5 53.5t15.5 88.5q0 80 -34 119.5t-90 39.5q-37 0 -65 -17.5t-43.5 -53t-15.5 -88.5q0 -79 34 -119.5t90 -40.5z" />
    <glyph glyph-name="q" unicode="q" 
d="M472 -188q-30 0 -46 16t-16 47v225h11q-16 -49 -61.5 -79.5t-106.5 -30.5q-64 0 -112.5 31t-75.5 88.5t-27 135.5q0 79 27 135.5t75.5 87.5t112.5 31q62 0 108 -31t61 -82l-11 -30v78q0 31 16 47t46 16t46 -16t16 -47v-559q0 -31 -16.5 -47t-46.5 -16zM288 85q37 0 65 18
t43.5 53.5t15.5 88.5q0 80 -34 119.5t-90 39.5q-37 0 -65 -17.5t-43.5 -53t-15.5 -88.5q0 -79 34 -119.5t90 -40.5z" />
    <glyph glyph-name="r" unicode="r" horiz-adv-x="392" 
d="M129 -8q-31 0 -47.5 16.5t-16.5 47.5v378q0 31 16 47t45 16t45 -16t16 -47v-63h-10q14 60 55 91t109 37q21 2 33.5 -10.5t14.5 -38.5q2 -25 -11.5 -40.5t-40.5 -18.5l-22 -2q-61 -6 -92 -37.5t-31 -88.5v-207q0 -31 -16 -47.5t-47 -16.5z" />
    <glyph glyph-name="s" unicode="s" horiz-adv-x="488" 
d="M244 -10q-43 0 -91 9t-86 31q-16 10 -22.5 23.5t-5 27t10 23.5t22 13t29.5 -5q40 -19 75 -26.5t69 -7.5q48 0 71.5 16.5t23.5 43.5q0 23 -15.5 35.5t-46.5 18.5l-100 19q-62 12 -94.5 45.5t-32.5 86.5q0 48 26.5 83t73.5 54t108 19q44 0 82.5 -9.5t74.5 -29.5
q15 -8 20.5 -21t2.5 -26.5t-12 -24t-22.5 -13t-30.5 5.5q-31 16 -59.5 23t-54.5 7q-49 0 -72.5 -17t-23.5 -45q0 -21 14 -35t43 -19l100 -19q65 -12 98.5 -44t33.5 -86q0 -73 -57 -114.5t-152 -41.5z" />
    <glyph glyph-name="t" unicode="t" horiz-adv-x="384" 
d="M289 -10q-65 0 -108.5 22t-64.5 64.5t-21 105.5v213h-52q-24 0 -37 12.5t-13 34.5q0 23 13 35t37 12h52v91q0 31 16.5 47t46.5 16t46 -16t16 -47v-91h106q24 0 37 -12t13 -35q0 -22 -13 -34.5t-37 -12.5h-106v-206q0 -48 21 -72t68 -24q17 0 30 3t23 4q12 1 20 -7.5
t8 -34.5q0 -20 -6.5 -35.5t-23.5 -21.5q-13 -4 -34 -7.5t-37 -3.5z" />
    <glyph glyph-name="u" unicode="u" horiz-adv-x="579" 
d="M242 -10q-61 0 -101 22.5t-59.5 67.5t-19.5 112v242q0 32 16 47.5t46 15.5t46.5 -15.5t16.5 -47.5v-244q0 -52 21 -77t67 -25q50 0 82 34.5t32 91.5v220q0 32 16 47.5t46 15.5t46.5 -15.5t16.5 -47.5v-378q0 -64 -61 -64q-29 0 -45 16.5t-16 47.5v76l14 -30
q-21 -54 -63.5 -83t-100.5 -29z" />
    <glyph glyph-name="v" unicode="v" horiz-adv-x="527" 
d="M263 -8q-25 0 -43.5 13t-30.5 40l-159 369q-9 22 -6.5 41t18 30.5t42.5 11.5q23 0 37 -10.5t25 -39.5l135 -337h-30l139 338q11 28 25.5 38.5t39.5 10.5q22 0 35 -11.5t16 -30t-7 -40.5l-162 -370q-11 -27 -29.5 -40t-44.5 -13z" />
    <glyph glyph-name="w" unicode="w" horiz-adv-x="853" 
d="M254 -8q-25 0 -43 12.5t-29 39.5l-145 370q-9 24 -5.5 42.5t18.5 29.5t40 11q22 0 36 -10.5t24 -39.5l121 -333h-23l125 341q8 22 21.5 32t35.5 10t36 -10.5t21 -31.5l123 -341h-21l122 336q10 27 25.5 37t34.5 10q24 0 37 -12t15 -30.5t-7 -40.5l-144 -370
q-10 -26 -28.5 -39t-43.5 -13t-43.5 13t-28.5 39l-131 347h57l-128 -346q-10 -27 -28 -40t-44 -13z" />
    <glyph glyph-name="x" unicode="x" horiz-adv-x="546" 
d="M99 -5q-22 0 -36.5 12.5t-15 32.5t16.5 42l162 200v-59l-152 187q-18 22 -17 42t15.5 32.5t36.5 12.5q23 0 38.5 -8t28.5 -25l120 -154h-44l121 154q14 17 29 25t37 8q23 0 37 -13t14.5 -33t-17.5 -42l-151 -185v56l162 -198q18 -21 17 -41t-15.5 -33t-37.5 -13
q-22 0 -37 8t-29 25l-130 164h42l-129 -164q-13 -16 -28 -24.5t-38 -8.5z" />
    <glyph glyph-name="y" unicode="y" horiz-adv-x="526" 
d="M189 -188q-22 0 -36 11.5t-16.5 30.5t6.5 40l68 151v-52l-182 421q-9 22 -6 41t18.5 30.5t42.5 11.5q23 0 37 -10.5t25 -39.5l135 -337h-30l138 338q11 28 26 38.5t40 10.5q22 0 35 -11.5t16 -30t-7 -40.5l-243 -555q-13 -28 -28 -38t-39 -10z" />
    <glyph glyph-name="z" unicode="z" horiz-adv-x="474" 
d="M95 0q-19 0 -31.5 9.5t-16.5 24.5t0.5 32.5t18.5 33.5l259 325v-30h-236q-23 0 -35.5 12.5t-12.5 34.5q0 23 12.5 35t35.5 12h296q22 0 36 -9.5t18.5 -24.5t0.5 -32t-18 -32l-264 -330v33h250q48 0 48 -47q0 -22 -12.5 -34.5t-35.5 -12.5h-313z" />
    <glyph glyph-name="braceleft" unicode="{" horiz-adv-x="391" 
d="M264 -180q-38 0 -65.5 14t-41.5 41.5t-14 65.5v194q0 41 -14.5 59.5t-52.5 19.5q-19 1 -30 15t-11 34t11 33.5t30 14.5q38 2 52.5 20.5t14.5 58.5v194q0 58 31.5 89.5t89.5 31.5h71q23 0 37.5 -13.5t14.5 -33.5t-12 -33.5t-32 -13.5h-35q-20 0 -30 -11t-10 -33v-192
q0 -31 -13 -57t-34.5 -42t-48.5 -16v4q27 0 48.5 -15.5t34.5 -41.5t13 -57v-192q0 -22 10 -33t30 -11h35q20 0 32 -13.5t12 -33.5t-14.5 -33.5t-37.5 -13.5h-71z" />
    <glyph glyph-name="bar" unicode="|" horiz-adv-x="288" 
d="M144 -189q-30 0 -46 16t-16 47v776q0 32 16 47.5t46 15.5t46.5 -15.5t16.5 -47.5v-776q0 -63 -63 -63z" />
    <glyph glyph-name="braceright" unicode="}" horiz-adv-x="391" 
d="M56 -180q-22 0 -37 13.5t-15 33.5t12 33.5t32 13.5h35q20 0 30 11t10 33v192q0 31 13 57t35 42t48 16v-4q-26 0 -48 15.5t-35 41.5t-13 57v192q0 22 -10 33t-30 11h-35q-20 0 -32 13.5t-12 33.5t15 33.5t37 13.5h71q39 0 66 -14t41 -41t14 -66v-194q0 -40 15 -58.5
t52 -20.5q20 -1 30.5 -15t10.5 -34q0 -19 -10.5 -33t-30.5 -15q-37 -1 -52 -19.5t-15 -59.5v-194q0 -58 -31.5 -89.5t-89.5 -31.5h-71z" />
    <glyph glyph-name="asciitilde" unicode="~" 
d="M409 209q-25 0 -52 9t-65 29q-37 20 -58 27.5t-36 7.5q-17 0 -33 -6t-31 -29q-11 -17 -26 -18.5t-27 7.5t-16 24.5t6 32.5q22 36 53 54.5t67 18.5q24 0 52 -8.5t65 -28.5q33 -17 55.5 -26.5t38.5 -9.5q17 0 33.5 6.5t31.5 28.5q11 17 26 18.5t27.5 -7.5t16.5 -24.5
t-7 -32.5q-22 -36 -53.5 -54.5t-67.5 -18.5z" />
    <glyph glyph-name="uni00A0" unicode="&#xa0;" horiz-adv-x="271" 
 />
    <glyph glyph-name="exclamdown" unicode="&#xa1;" horiz-adv-x="248" 
d="M125 -188q-37 0 -56 22.5t-16 59.5l30 347q2 23 12.5 34.5t29.5 11.5q18 0 29 -11.5t12 -34.5l28 -347q3 -37 -15 -59.5t-54 -22.5zM125 346q-34 0 -54.5 21t-20.5 53q0 33 20.5 53.5t54.5 20.5q35 0 54.5 -20.5t19.5 -53.5q0 -32 -19.5 -53t-54.5 -21z" />
    <glyph glyph-name="cent" unicode="&#xa2;" 
d="M321 -123q-21 0 -35.5 14.5t-14.5 36.5v97l19 -30q-63 10 -110 43.5t-72.5 86.5t-25.5 120q0 48 14.5 89.5t42 74t66 54t85.5 28.5l-19 -32v107q0 22 14.5 36.5t35.5 14.5q22 0 36 -14.5t14 -36.5v-100l-31 29q39 0 79.5 -10t71.5 -30q15 -10 20.5 -24t2.5 -28.5
t-12.5 -25t-23.5 -13t-31 7.5q-21 12 -47 19t-51 7q-33 0 -58.5 -11t-43.5 -31t-27.5 -48t-9.5 -61q0 -68 36.5 -111t101.5 -43q23 0 48.5 6t50.5 20q19 11 33 8t22.5 -14t10.5 -26t-4.5 -29.5t-21.5 -23.5q-29 -18 -69.5 -29.5t-79.5 -12.5l33 27v-91q0 -22 -14 -36.5
t-36 -14.5z" />
    <glyph glyph-name="sterling" unicode="&#xa3;" 
d="M89 0q-22 0 -37.5 15.5t-15.5 37.5q0 23 15.5 37.5t37.5 14.5h63l-24 -21v251l23 -25h-69q-19 0 -32.5 12.5t-13.5 31.5q0 20 13.5 32t32.5 12h69l-23 -27v126q0 66 26 115t78.5 76t131.5 27q51 0 103 -15t85 -40q17 -13 22.5 -29t0.5 -31t-16.5 -24.5t-28 -10.5
t-34.5 11q-30 20 -62 28t-64 8q-58 0 -86 -28.5t-28 -81.5v-128l-13 24h140q20 0 33.5 -12t13.5 -32q0 -19 -13.5 -31.5t-33.5 -12.5h-127v-205h260q23 0 38 -14.5t15 -37.5q0 -22 -15 -37.5t-38 -15.5h-427z" />
    <glyph glyph-name="currency" unicode="&#xa4;" 
d="M49 -12q-11 11 -11 26t11 26l55 57q-22 31 -34.5 69t-12.5 79q0 42 12.5 80t34.5 69l-55 57q-11 11 -11 25t11 26q11 11 25.5 11t26.5 -12l55 -56q30 23 66.5 35.5t76.5 12.5t76 -12t66 -35l53 55q12 12 28 12.5t27 -10.5q12 -12 12 -27.5t-12 -27.5l-55 -56
q23 -31 34.5 -68.5t11.5 -78.5t-12 -78.5t-35 -69.5l56 -57q11 -11 11 -26t-11 -26q-10 -10 -25 -10t-26 12l-55 56q-30 -23 -66.5 -36t-77.5 -13q-40 0 -77 13t-67 35l-55 -56q-11 -11 -25.5 -11.5t-25.5 10.5zM299 98q38 0 69.5 20t50 53.5t18.5 73.5q0 41 -18.5 74.5
t-50 53.5t-69.5 20t-70 -20t-50.5 -53.5t-18.5 -74.5q0 -40 18.5 -73.5t50 -53.5t70.5 -20z" />
    <glyph glyph-name="yen" unicode="&#xa5;" 
d="M300 -8q-31 0 -47.5 17.5t-16.5 49.5v100h-128q-23 0 -35.5 11.5t-12.5 32.5t12.5 32.5t35.5 11.5h128v68h-128q-23 0 -35.5 11.5t-12.5 32.5t12.5 32.5t35.5 11.5h101v-22l-173 249q-12 17 -9.5 36.5t17 33t39.5 13.5q20 0 34 -9.5t27 -29.5l170 -253h-28l170 253
q14 21 28.5 30t34.5 9q25 0 40 -13t16.5 -32.5t-12.5 -39.5l-171 -247v22h100q23 0 35.5 -11.5t12.5 -32.5t-12.5 -32.5t-35.5 -11.5h-128v-68h128q23 0 35.5 -11.5t12.5 -32.5t-12.5 -32.5t-35.5 -11.5h-128v-100q0 -67 -64 -67z" />
    <glyph glyph-name="brokenbar" unicode="&#xa6;" horiz-adv-x="288" 
d="M144 364q-30 0 -46 16t-16 47v223q0 32 16 47.5t46 15.5t46.5 -15.5t16.5 -47.5v-223q0 -63 -63 -63zM144 -188q-30 0 -46 16t-16 47v223q0 31 16 47.5t46 16.5t46.5 -16.5t16.5 -47.5v-223q0 -63 -63 -63z" />
    <glyph glyph-name="section" unicode="&#xa7;" horiz-adv-x="570" 
d="M263 -190q-52 0 -99 10t-83 30q-15 9 -20.5 22.5t-3 27t11.5 24t22.5 13.5t30.5 -5q30 -15 68.5 -24t72.5 -9t58.5 10t38.5 29.5t14 47.5q0 29 -16 51t-59 41l-126 57q-50 23 -80.5 49t-44 56.5t-13.5 67.5q0 47 23.5 87t66.5 68l-10 -34q-18 17 -28.5 42t-10.5 59
q0 58 29 99t80.5 63.5t118.5 22.5q52 0 97.5 -10.5t81.5 -30.5q15 -9 20.5 -22.5t3 -27.5t-11.5 -24.5t-22.5 -13.5t-30.5 6q-30 16 -66.5 25t-71.5 9q-32 0 -56.5 -10t-38 -29.5t-13.5 -47.5q0 -29 16 -50.5t59 -41.5l126 -57q51 -23 81 -49t43.5 -56.5t13.5 -67.5
q0 -47 -23.5 -87t-66.5 -68l10 34q18 -17 28.5 -42.5t10.5 -58.5q0 -57 -29 -98.5t-81 -64t-121 -22.5zM146 330q0 -31 20.5 -56.5t69.5 -48.5l109 -50q26 -12 45.5 -26t31.5 -27l-31 -4q17 17 25 36.5t8 40.5q0 32 -20 57.5t-70 47.5l-109 50q-26 12 -45.5 26t-31.5 27
l31 4q-16 -16 -24.5 -36t-8.5 -41z" />
    <glyph glyph-name="dieresis" unicode="&#xa8;" horiz-adv-x="512" 
d="M351 593q-30 0 -46 16t-16 46q0 29 16 45t46 16q29 0 45 -16t16 -45q0 -30 -15.5 -46t-45.5 -16zM162 593q-29 0 -45.5 16t-16.5 46q0 29 16.5 45t45.5 16q30 0 46 -16t16 -45q0 -30 -16 -46t-46 -16z" />
    <glyph glyph-name="copyright" unicode="&#xa9;" horiz-adv-x="815" 
d="M408 -10q-77 0 -143 27.5t-115.5 77t-77 115.5t-27.5 143t27.5 143t77 115t115.5 76.5t143 27.5t143 -27.5t115 -76.5t76.5 -115t27.5 -143t-27.5 -143t-76.5 -115.5t-115 -77t-143 -27.5zM408 43q66 0 122 23.5t97 65.5t64 98.5t23 122.5t-23 122.5t-64 98t-97 65
t-122 23.5t-122 -23.5t-97.5 -65t-64.5 -98t-23 -122.5t23 -122.5t64.5 -98.5t97.5 -65.5t122 -23.5zM426 137q-100 0 -158.5 59t-58.5 159q0 99 58.5 156t158.5 57q29 0 61 -7.5t60 -23.5q14 -8 19 -20.5t3.5 -25.5t-9 -22.5t-19.5 -12t-27 5.5q-20 11 -40 16.5t-39 5.5
q-56 0 -88 -34t-32 -96t32 -97.5t88 -35.5q19 0 38.5 5t41.5 16q18 9 31.5 3t19.5 -20t2 -29.5t-20 -25.5q-27 -16 -59.5 -24.5t-62.5 -8.5z" />
    <glyph glyph-name="ordfeminine" unicode="&#xaa;" horiz-adv-x="339" 
d="M135 408q-50 0 -81.5 27t-31.5 67q0 47 41.5 67t121.5 20h52v-44h-49q-45 0 -65 -10t-20 -31q0 -17 12.5 -29t40.5 -12q21 0 37 9.5t25.5 27.5t9.5 42v58q0 28 -16 41t-50 13q-16 0 -35.5 -3.5t-42.5 -11.5q-17 -5 -27.5 1t-14 17.5t2.5 22.5t22 17q26 11 51.5 14.5
t49.5 3.5q47 0 78 -13.5t46.5 -39.5t15.5 -66v-149q0 -39 -38 -39q-19 0 -29 11.5t-10 28.5v21h-2q-16 -31 -38 -46t-56 -15z" />
    <glyph glyph-name="guillemotleft" unicode="&#xab;" horiz-adv-x="494" 
d="M206 83q-17 -7 -33.5 -2.5t-26.5 20.5l-78 124q-13 20 -13 40.5t13 41.5l76 123q11 17 27.5 21.5t33.5 -3.5q19 -8 25.5 -27t-4.5 -41l-54 -114l54 -115q10 -21 5 -40.5t-25 -27.5zM413 83q-17 -7 -33.5 -2.5t-26.5 20.5l-78 124q-13 20 -13 40.5t13 41.5l76 123
q11 17 27.5 21.5t33.5 -3.5q19 -8 25.5 -27t-4.5 -41l-54 -114l54 -115q10 -21 5 -40.5t-25 -27.5z" />
    <glyph glyph-name="logicalnot" unicode="&#xac;" 
d="M498 132q-23 0 -34.5 12.5t-11.5 34.5v165h-359q-21 0 -33 11.5t-12 32.5t12 32.5t33 11.5h404q23 0 35 -12t12 -35v-206q0 -47 -46 -47z" />
    <glyph glyph-name="uni00AD" unicode="&#xad;" horiz-adv-x="434" 
d="M111 218q-22 0 -36.5 14.5t-14.5 35.5q0 22 14.5 36t36.5 14h213q21 0 35.5 -14t14.5 -36q0 -21 -14.5 -35.5t-35.5 -14.5h-213z" />
    <glyph glyph-name="registered" unicode="&#xae;" horiz-adv-x="815" 
d="M408 -10q-77 0 -143 27.5t-115.5 77t-77 115.5t-27.5 143t27.5 143t77 115t115.5 76.5t143 27.5t143 -27.5t115 -76.5t76.5 -115t27.5 -143t-27.5 -143t-76.5 -115.5t-115 -77t-143 -27.5zM408 43q66 0 122 23.5t97 65.5t64 98.5t23 122.5t-23 122.5t-64 98t-97 65
t-122 23.5t-122 -23.5t-97.5 -65t-64.5 -98t-23 -122.5t23 -122.5t64.5 -98.5t97.5 -65.5t122 -23.5zM301 136q-48 0 -48 50v322q0 27 14.5 42t42.5 15h126q71 0 108.5 -34.5t37.5 -90.5q0 -58 -37 -88.5t-104 -30.5l22 11q31 0 50.5 -13t33.5 -57l22 -67q10 -29 -5 -44
t-41 -15q-17 0 -28 10.5t-16 27.5l-29 93q-7 22 -22 29.5t-35 7.5h-60l16 11v-129q0 -50 -48 -50zM348 376h75q34 0 51 14t17 45q0 30 -17 44t-51 14h-75v-117z" />
    <glyph glyph-name="macron" unicode="&#xaf;" horiz-adv-x="525" 
d="M139 616q-39 0 -39 37q0 18 10 27.5t29 9.5h247q39 0 39 -37q0 -17 -10 -27t-29 -10h-247z" />
    <glyph glyph-name="degree" unicode="&#xb0;" horiz-adv-x="379" 
d="M190 406q-45 0 -80.5 20.5t-56 55.5t-20.5 79t20.5 78.5t56 55t80.5 20.5t80 -20t55.5 -55t20.5 -79t-20.5 -79.5t-55.5 -55.5t-80 -20zM190 477q35 0 57 24t22 60q0 35 -22 59t-57 24t-57.5 -24t-22.5 -59q0 -36 22.5 -60t57.5 -24z" />
    <glyph glyph-name="plusminus" unicode="&#xb1;" 
d="M300 131q-22 0 -34 12.5t-12 34.5v113h-160q-22 0 -34 11.5t-12 32.5t12 32.5t34 11.5h160v113q0 23 12 35t35 12q22 0 33.5 -12t11.5 -35v-113h161q22 0 33.5 -11.5t11.5 -32.5t-11.5 -32.5t-33.5 -11.5h-161v-113q0 -22 -11.5 -34.5t-34.5 -12.5zM93 0q-21 0 -33 11.5
t-12 32.5t12 32.5t33 11.5h414q22 0 33.5 -11.5t11.5 -32.5t-11.5 -32.5t-33.5 -11.5h-414z" />
    <glyph glyph-name="uni00B2" unicode="&#xb2;" horiz-adv-x="380" 
d="M92 282q-20 0 -33.5 12.5t-13.5 32.5q0 16 7 28t19 24l101 106q25 26 35.5 47t10.5 42q0 25 -14.5 38.5t-43.5 13.5q-17 0 -35 -5.5t-34 -14.5q-18 -10 -32.5 -5t-21.5 18.5t-3 29.5t22 27q26 16 60 24.5t67 8.5q44 0 76 -15t49.5 -42t17.5 -64q0 -33 -15.5 -64
t-51.5 -68l-96 -99v9h146q43 0 43 -42q0 -20 -11 -31t-32 -11h-217z" />
    <glyph glyph-name="uni00B3" unicode="&#xb3;" horiz-adv-x="380" 
d="M185 277q-39 0 -73 8.5t-60 24.5q-18 11 -22.5 27t2.5 30t22 18.5t36 -6.5q20 -10 40.5 -14.5t42.5 -4.5q33 0 52 13t19 39q0 23 -17 32t-48 9h-44q-22 0 -33.5 11t-11.5 31t11.5 31t33.5 11h32q31 0 48 10.5t17 33.5q0 20 -16.5 32.5t-48.5 12.5q-17 0 -35 -4.5
t-35 -12.5q-21 -11 -37 -6.5t-23 18t-3 29t22 26.5q27 16 61 24.5t68 8.5q67 0 106 -30t39 -81q0 -41 -26.5 -69t-64.5 -36v12q47 -4 75 -31.5t28 -74.5q0 -38 -20.5 -65.5t-55.5 -42t-81 -14.5z" />
    <glyph glyph-name="acute" unicode="&#xb4;" horiz-adv-x="377" 
d="M171 560q-10 -14 -24 -16t-27 5t-18.5 20t2.5 29l76 149q9 19 24 24.5t31 1.5t27.5 -15t14 -26.5t-8.5 -31.5z" />
    <glyph glyph-name="uni00B5" unicode="&#xb5;" 
d="M137 -188q-30 0 -46 16t-16 47v559q0 32 16 47.5t46 15.5t46.5 -15.5t16.5 -47.5v-243q0 -52 21 -76.5t67 -24.5q50 0 82 34t32 91v219q0 32 16 47.5t46 15.5t46.5 -15.5t16.5 -47.5v-378q0 -64 -61 -64q-29 0 -45 15.5t-16 38.5v56h4q-12 -54 -46.5 -83t-77.5 -29
q-36 0 -61.5 13.5t-40.5 47.5h7l7 -174q2 -31 -13.5 -48t-46.5 -17z" />
    <glyph glyph-name="paragraph" unicode="&#xb6;" horiz-adv-x="624" 
d="M294 -188q-22 0 -33.5 12t-11.5 34v424q-64 0 -112 27t-74.5 74.5t-26.5 110.5t26.5 110.5t75 74t113.5 26.5h236q29 0 45 -15.5t16 -44.5v-787q0 -46 -46 -46q-22 0 -33.5 12t-11.5 34v758h-117v-758q0 -46 -46 -46z" />
    <glyph glyph-name="periodcentered" unicode="&#xb7;" horiz-adv-x="248" 
d="M125 194q-34 0 -54.5 20.5t-20.5 53.5q0 32 20.5 52.5t54.5 20.5q35 0 54.5 -20.5t19.5 -52.5q0 -33 -19.5 -53.5t-54.5 -20.5z" />
    <glyph glyph-name="cedilla" unicode="&#xb8;" horiz-adv-x="421" 
d="M202 -195q-19 0 -40 2.5t-38 8.5q-15 5 -20.5 16.5t-2 23t14 17.5t25.5 0q13 -4 25 -6t26 -2q26 0 40 7.5t14 22.5q0 11 -8.5 17t-28.5 6q-7 0 -14.5 -0.5t-15.5 -2.5q-7 -2 -12.5 -1.5t-10.5 4.5q-4 4 -5 10t0 16l11 76h67l-13 -76l-32 11q12 4 24 6t22 2q41 0 66 -19
t25 -53q0 -39 -33 -62.5t-86 -23.5z" />
    <glyph glyph-name="uni00B9" unicode="&#xb9;" horiz-adv-x="380" 
d="M104 282q-43 0 -43 42q0 20 11 31t32 11h62v250h42l-82 -46q-21 -12 -38 -6.5t-24.5 20t-3.5 31.5t25 29l83 47q14 8 27 13t28 5q14 0 23.5 -5.5t14.5 -15.5t5 -24v-298h40q44 0 44 -42q0 -20 -11.5 -31t-32.5 -11h-202z" />
    <glyph glyph-name="ordmasculine" unicode="&#xba;" horiz-adv-x="353" 
d="M177 409q-45 0 -81 19t-56.5 53.5t-20.5 81.5t20.5 81t56.5 52.5t81 18.5t80.5 -18.5t56 -52.5t20.5 -81t-20.5 -81.5t-56 -53.5t-80.5 -19zM177 472q34 0 54 23.5t20 67.5t-20 67t-54 23t-54.5 -22.5t-20.5 -67.5t20.5 -68t54.5 -23z" />
    <glyph glyph-name="guillemotright" unicode="&#xbb;" horiz-adv-x="494" 
d="M81 83q-19 8 -24.5 27.5t4.5 40.5l55 115l-55 114q-10 22 -3.5 41t25.5 27q17 8 34 3.5t27 -21.5l75 -123q13 -21 13 -41t-13 -41l-77 -124q-10 -16 -27 -20.5t-34 2.5zM288 83q-19 8 -24.5 27.5t4.5 40.5l55 115l-55 114q-10 22 -3.5 41t25.5 27q17 8 34 3.5t27 -21.5
l75 -123q13 -21 13 -41t-13 -41l-77 -124q-10 -16 -27 -20.5t-34 2.5z" />
    <glyph glyph-name="onequarter" unicode="&#xbc;" horiz-adv-x="912" 
d="M104 282q-43 0 -43 42q0 20 11 31t32 11h62v250h42l-82 -46q-21 -12 -38 -6.5t-24.5 20t-3.5 31.5t25 29l83 47q14 8 27 13t28 5q14 0 23.5 -5.5t14.5 -15.5t5 -24v-298h40q44 0 44 -42q0 -20 -11.5 -31t-32.5 -11h-202zM339 8q-10 -17 -23.5 -22.5t-27.5 -1.5t-24 14
t-12.5 25.5t7.5 32.5l371 641q10 17 24 22.5t28 1.5t24 -14.5t12 -25.5t-8 -32zM794 -4q-24 0 -37.5 12.5t-13.5 34.5v28h-140q-23 0 -37 13t-14 32q0 14 7 27t18 29l153 222q5 8 19.5 21t41.5 13q26 0 39 -14t13 -40v-219h20q16 0 27.5 -10.5t11.5 -30.5q0 -24 -11.5 -33.5
t-27.5 -9.5h-20v-28q0 -22 -13 -34.5t-36 -12.5zM743 155v167h24l-128 -187v20h104z" />
    <glyph glyph-name="onehalf" unicode="&#xbd;" horiz-adv-x="960" 
d="M104 282q-43 0 -43 42q0 20 11 31t32 11h62v250h42l-82 -46q-21 -12 -38 -6.5t-24.5 20t-3.5 31.5t25 29l83 47q14 8 27 13t28 5q14 0 23.5 -5.5t14.5 -15.5t5 -24v-298h40q44 0 44 -42q0 -20 -11.5 -31t-32.5 -11h-202zM339 8q-10 -17 -23.5 -22.5t-27.5 -1.5t-24 14
t-12.5 25.5t7.5 32.5l371 641q10 17 24 22.5t28 1.5t24 -14.5t12 -25.5t-8 -32zM672 0q-20 0 -33.5 12.5t-13.5 32.5q0 16 7 28t19 24l101 106q25 26 35.5 47t10.5 42q0 25 -14.5 38.5t-43.5 13.5q-17 0 -35 -5.5t-34 -14.5q-18 -10 -32.5 -5t-21.5 18.5t-3 29.5t22 27
q26 16 60 24.5t67 8.5q44 0 76 -15t49.5 -42t17.5 -64q0 -33 -15.5 -64t-51.5 -68l-96 -99v9h146q43 0 43 -42q0 -20 -11 -31t-32 -11h-217z" />
    <glyph glyph-name="threequarters" unicode="&#xbe;" horiz-adv-x="912" 
d="M185 277q-39 0 -73 8.5t-60 24.5q-18 11 -22.5 27t2.5 30t22 18.5t36 -6.5q20 -10 40.5 -14.5t42.5 -4.5q33 0 52 13t19 39q0 23 -17 32t-48 9h-44q-22 0 -33.5 11t-11.5 31t11.5 31t33.5 11h32q31 0 48 10.5t17 33.5q0 20 -16.5 32.5t-48.5 12.5q-17 0 -35 -4.5
t-35 -12.5q-21 -11 -37 -6.5t-23 18t-3 29t22 26.5q27 16 61 24.5t68 8.5q67 0 106 -30t39 -81q0 -41 -26.5 -69t-64.5 -36v12q47 -4 75 -31.5t28 -74.5q0 -38 -20.5 -65.5t-55.5 -42t-81 -14.5zM339 8q-10 -17 -23.5 -22.5t-27.5 -1.5t-24 14t-12.5 25.5t7.5 32.5l371 641
q10 17 24 22.5t28 1.5t24 -14.5t12 -25.5t-8 -32zM794 -4q-24 0 -37.5 12.5t-13.5 34.5v28h-140q-23 0 -37 13t-14 32q0 14 7 27t18 29l153 222q5 8 19.5 21t41.5 13q26 0 39 -14t13 -40v-219h20q16 0 27.5 -10.5t11.5 -30.5q0 -24 -11.5 -33.5t-27.5 -9.5h-20v-28
q0 -22 -13 -34.5t-36 -12.5zM743 155v167h24l-128 -187v20h104z" />
    <glyph glyph-name="questiondown" unicode="&#xbf;" horiz-adv-x="459" 
d="M226 -190q-63 0 -110 19.5t-73.5 55t-26.5 81.5q0 43 20 80.5t72 80.5q32 26 50 48t26.5 41.5t11.5 36.5q2 14 12 23t28 9q19 0 29.5 -12t10.5 -33q0 -24 -7 -49t-23.5 -51t-45.5 -54q-33 -31 -45 -53.5t-12 -46.5q0 -31 24 -49.5t67 -18.5q38 0 71.5 9t66.5 27
q22 12 40 10t29.5 -13.5t14 -27.5t-5.5 -33t-30 -29q-42 -24 -91.5 -37.5t-102.5 -13.5zM238 346q-34 0 -54 20.5t-20 52.5q0 33 20 54t54 21q35 0 55 -21t20 -54q0 -32 -20 -52.5t-55 -20.5z" />
    <glyph glyph-name="Agrave" unicode="&#xc0;" horiz-adv-x="744" 
d="M84 -8q-24 0 -38.5 11t-17.5 29.5t7 41.5l264 585q13 29 31.5 41.5t42.5 12.5q23 0 41.5 -12.5t31.5 -41.5l265 -585q11 -23 8 -42t-17 -29.5t-37 -10.5q-28 0 -43.5 13.5t-27.5 41.5l-65 151l54 -35h-422l54 35l-64 -151q-13 -29 -27 -42t-40 -13zM371 566l-140 -333
l-26 32h334l-25 -32l-141 333h-2zM323 771l-96 105q-13 14 -12 28.5t10.5 26t24.5 17t30.5 2t26.5 -20.5l78 -115q9 -14 5.5 -27t-15 -21.5t-26 -8t-26.5 13.5z" />
    <glyph glyph-name="Aacute" unicode="&#xc1;" horiz-adv-x="744" 
d="M84 -8q-24 0 -38.5 11t-17.5 29.5t7 41.5l264 585q13 29 31.5 41.5t42.5 12.5q23 0 41.5 -12.5t31.5 -41.5l265 -585q11 -23 8 -42t-17 -29.5t-37 -10.5q-28 0 -43.5 13.5t-27.5 41.5l-65 151l54 -35h-422l54 35l-64 -151q-13 -29 -27 -42t-40 -13zM371 566l-140 -333
l-26 32h334l-25 -32l-141 333h-2zM424 771q-12 -13 -26.5 -13.5t-26 8t-15 21.5t5.5 27l78 115q11 17 26.5 20.5t30.5 -2t24.5 -17t10.5 -26t-12 -28.5z" />
    <glyph glyph-name="Acircumflex" unicode="&#xc2;" horiz-adv-x="744" 
d="M84 -8q-24 0 -38.5 11t-17.5 29.5t7 41.5l264 585q13 29 31.5 41.5t42.5 12.5q23 0 41.5 -12.5t31.5 -41.5l265 -585q11 -23 8 -42t-17 -29.5t-37 -10.5q-28 0 -43.5 13.5t-27.5 41.5l-65 151l54 -35h-422l54 35l-64 -151q-13 -29 -27 -42t-40 -13zM371 566l-140 -333
l-26 32h334l-25 -32l-141 333h-2zM289 771q-12 -13 -27 -14t-26.5 6.5t-15 20t6.5 26.5l73 101q14 21 32.5 30.5t40.5 9.5q23 0 41 -9.5t33 -30.5l72 -101q11 -14 7.5 -26.5t-15 -20t-26.5 -6.5t-27 14l-85 98z" />
    <glyph glyph-name="Atilde" unicode="&#xc3;" horiz-adv-x="744" 
d="M84 -8q-24 0 -38.5 11t-17.5 29.5t7 41.5l264 585q13 29 31.5 41.5t42.5 12.5q23 0 41.5 -12.5t31.5 -41.5l265 -585q11 -23 8 -42t-17 -29.5t-37 -10.5q-28 0 -43.5 13.5t-27.5 41.5l-65 151l54 -35h-422l54 35l-64 -151q-13 -29 -27 -42t-40 -13zM371 566l-140 -333
l-26 32h334l-25 -32l-141 333h-2zM184 769q-16 1 -25 11t-5 27q12 56 46.5 86.5t83.5 30.5q28 0 52 -10t46 -23t42.5 -23t40.5 -10q26 0 41.5 13.5t20.5 33.5q4 14 13 20.5t22 5.5q16 -1 25 -11t5 -27q-12 -56 -45.5 -86.5t-83.5 -30.5q-28 0 -52.5 10t-46.5 23t-42.5 23
t-40.5 10q-25 0 -41 -13.5t-21 -33.5q-4 -13 -12.5 -20t-22.5 -6z" />
    <glyph glyph-name="Adieresis" unicode="&#xc4;" horiz-adv-x="744" 
d="M84 -8q-24 0 -38.5 11t-17.5 29.5t7 41.5l264 585q13 29 31.5 41.5t42.5 12.5q23 0 41.5 -12.5t31.5 -41.5l265 -585q11 -23 8 -42t-17 -29.5t-37 -10.5q-28 0 -43.5 13.5t-27.5 41.5l-65 151l54 -35h-422l54 35l-64 -151q-13 -29 -27 -42t-40 -13zM371 566l-140 -333
l-26 32h334l-25 -32l-141 333h-2zM468 786q-30 0 -46 16t-16 46q0 29 16 45t46 16q29 0 45 -16t16 -45q0 -30 -15.5 -46t-45.5 -16zM279 786q-29 0 -45.5 16t-16.5 46q0 29 16.5 45t45.5 16q30 0 46 -16t16 -45q0 -30 -16 -46t-46 -16z" />
    <glyph glyph-name="Aring" unicode="&#xc5;" horiz-adv-x="744" 
d="M84 -8q-24 0 -38.5 11t-17.5 29.5t7 41.5l264 585q13 29 31.5 41.5t42.5 12.5q23 0 41.5 -12.5t31.5 -41.5l265 -585q11 -23 8 -42t-17 -29.5t-37 -10.5q-28 0 -43.5 13.5t-27.5 41.5l-65 151l54 -35h-422l54 35l-64 -151q-13 -29 -27 -42t-40 -13zM371 566l-140 -333
l-26 32h334l-25 -32l-141 333h-2zM373 755q-35 0 -64 16.5t-45.5 44.5t-16.5 62q0 35 16.5 62.5t45.5 43.5t64 16q36 0 64.5 -16t45 -43.5t16.5 -62.5q0 -34 -16.5 -62t-45 -44.5t-64.5 -16.5zM373 812q29 0 47 19t18 47t-18 46.5t-47 18.5q-28 0 -46.5 -18.5t-18.5 -46.5
t18.5 -47t46.5 -19z" />
    <glyph glyph-name="AE" unicode="&#xc6;" horiz-adv-x="993" 
d="M54 -8q-28 0 -42.5 11.5t-14.5 30t12 38.5l371 598q11 19 26.5 27t37.5 8h452q26 0 39.5 -13t13.5 -37q0 -25 -13.5 -38.5t-39.5 -13.5h-393l30 34l57 -263l-43 35h328q26 0 39.5 -13t13.5 -38t-13.5 -38t-39.5 -13h-306l28 35l60 -277l-46 37h285q26 0 39.5 -13
t13.5 -38t-13.5 -38t-39.5 -13h-292q-47 0 -58 47l-33 154l42 -38h-386l48 34l-98 -165q-12 -19 -26.5 -29.5t-38.5 -10.5zM433 562l-195 -328l-9 31h302l-24 -35l-72 332h-2z" />
    <glyph glyph-name="Ccedilla" unicode="&#xc7;" horiz-adv-x="680" 
d="M405 -10q-110 0 -188.5 44.5t-120.5 126t-42 192.5q0 83 24 149.5t69 114t110.5 73t147.5 25.5q55 0 108 -14t93 -40q21 -13 28 -31.5t3 -36t-16.5 -29.5t-31 -13.5t-40.5 12.5q-31 20 -67 29t-73 9q-71 0 -120 -29t-74 -84t-25 -135q0 -79 25 -135t74 -85t120 -29
q38 0 75 9.5t70 29.5q22 13 39.5 11.5t29.5 -12.5t16 -27.5t-2 -34t-24 -30.5q-40 -29 -95.5 -44.5t-112.5 -15.5zM392 -195q-19 0 -40 2.5t-38 8.5q-15 5 -20.5 16.5t-2 23t14 17.5t25.5 0q13 -4 25 -6t26 -2q26 0 40 7.5t14 22.5q0 11 -8.5 17t-28.5 6q-7 0 -14.5 -0.5
t-15.5 -2.5q-7 -2 -12.5 -1.5t-10.5 4.5q-4 4 -5 10t0 16l11 76h67l-13 -76l-32 11q12 4 24 6t22 2q41 0 66 -19t25 -53q0 -39 -33 -62.5t-86 -23.5z" />
    <glyph glyph-name="Egrave" unicode="&#xc8;" horiz-adv-x="597" 
d="M145 0q-33 0 -50.5 17.5t-17.5 50.5v569q0 33 17.5 50.5t50.5 17.5h357q25 0 38.5 -13t13.5 -37q0 -25 -13.5 -38.5t-38.5 -13.5h-302v-194h280q26 0 39 -13t13 -38t-13 -38t-39 -13h-280v-205h302q25 0 38.5 -13t13.5 -38t-13.5 -38t-38.5 -13h-357zM278 771l-96 105
q-13 14 -12 28.5t10.5 26t24.5 17t30.5 2t26.5 -20.5l78 -115q9 -14 5.5 -27t-15 -21.5t-26 -8t-26.5 13.5z" />
    <glyph glyph-name="Eacute" unicode="&#xc9;" horiz-adv-x="597" 
d="M145 0q-33 0 -50.5 17.5t-17.5 50.5v569q0 33 17.5 50.5t50.5 17.5h357q25 0 38.5 -13t13.5 -37q0 -25 -13.5 -38.5t-38.5 -13.5h-302v-194h280q26 0 39 -13t13 -38t-13 -38t-39 -13h-280v-205h302q25 0 38.5 -13t13.5 -38t-13.5 -38t-38.5 -13h-357zM379 771
q-12 -13 -26.5 -13.5t-26 8t-15 21.5t5.5 27l78 115q11 17 26.5 20.5t30.5 -2t24.5 -17t10.5 -26t-12 -28.5z" />
    <glyph glyph-name="Ecircumflex" unicode="&#xca;" horiz-adv-x="597" 
d="M145 0q-33 0 -50.5 17.5t-17.5 50.5v569q0 33 17.5 50.5t50.5 17.5h357q25 0 38.5 -13t13.5 -37q0 -25 -13.5 -38.5t-38.5 -13.5h-302v-194h280q26 0 39 -13t13 -38t-13 -38t-39 -13h-280v-205h302q25 0 38.5 -13t13.5 -38t-13.5 -38t-38.5 -13h-357zM244 771
q-12 -13 -27 -14t-26.5 6.5t-15 20t6.5 26.5l73 101q14 21 32.5 30.5t40.5 9.5q23 0 41 -9.5t33 -30.5l72 -101q11 -14 7.5 -26.5t-15 -20t-26.5 -6.5t-27 14l-85 98z" />
    <glyph glyph-name="Edieresis" unicode="&#xcb;" horiz-adv-x="597" 
d="M145 0q-33 0 -50.5 17.5t-17.5 50.5v569q0 33 17.5 50.5t50.5 17.5h357q25 0 38.5 -13t13.5 -37q0 -25 -13.5 -38.5t-38.5 -13.5h-302v-194h280q26 0 39 -13t13 -38t-13 -38t-39 -13h-280v-205h302q25 0 38.5 -13t13.5 -38t-13.5 -38t-38.5 -13h-357zM423 786
q-30 0 -46 16t-16 46q0 29 16 45t46 16q29 0 45 -16t16 -45q0 -30 -15.5 -46t-45.5 -16zM234 786q-29 0 -45.5 16t-16.5 46q0 29 16.5 45t45.5 16q30 0 46 -16t16 -45q0 -30 -16 -46t-46 -16z" />
    <glyph glyph-name="Igrave" unicode="&#xcc;" horiz-adv-x="282" 
d="M141 -8q-31 0 -47.5 17.5t-16.5 48.5v589q0 32 16.5 49t47.5 17t47.5 -17t16.5 -49v-589q0 -31 -16 -48.5t-48 -17.5zM91 771l-96 105q-13 14 -12 28.5t10.5 26t24.5 17t30.5 2t26.5 -20.5l78 -115q9 -14 5.5 -27t-15 -21.5t-26 -8t-26.5 13.5z" />
    <glyph glyph-name="Iacute" unicode="&#xcd;" horiz-adv-x="282" 
d="M141 -8q-31 0 -47.5 17.5t-16.5 48.5v589q0 32 16.5 49t47.5 17t47.5 -17t16.5 -49v-589q0 -31 -16 -48.5t-48 -17.5zM192 771q-12 -13 -26.5 -13.5t-26 8t-15 21.5t5.5 27l78 115q11 17 26.5 20.5t30.5 -2t24.5 -17t10.5 -26t-12 -28.5z" />
    <glyph glyph-name="Icircumflex" unicode="&#xce;" horiz-adv-x="282" 
d="M141 -8q-31 0 -47.5 17.5t-16.5 48.5v589q0 32 16.5 49t47.5 17t47.5 -17t16.5 -49v-589q0 -31 -16 -48.5t-48 -17.5zM57 771q-12 -13 -27 -14t-26.5 6.5t-15 20t6.5 26.5l73 101q14 21 32.5 30.5t40.5 9.5q23 0 41 -9.5t33 -30.5l72 -101q11 -14 7.5 -26.5t-15 -20
t-26.5 -6.5t-27 14l-85 98z" />
    <glyph glyph-name="Idieresis" unicode="&#xcf;" horiz-adv-x="282" 
d="M141 -8q-31 0 -47.5 17.5t-16.5 48.5v589q0 32 16.5 49t47.5 17t47.5 -17t16.5 -49v-589q0 -31 -16 -48.5t-48 -17.5zM236 786q-30 0 -46 16t-16 46q0 29 16 45t46 16q29 0 45 -16t16 -45q0 -30 -15.5 -46t-45.5 -16zM47 786q-29 0 -45.5 16t-16.5 46q0 29 16.5 45
t45.5 16q30 0 46 -16t16 -45q0 -30 -16 -46t-46 -16z" />
    <glyph glyph-name="Eth" unicode="&#xd0;" horiz-adv-x="762" 
d="M145 0q-33 0 -50.5 17.5t-17.5 50.5v569q0 33 17.5 50.5t50.5 17.5h194q177 0 273.5 -91t96.5 -261q0 -85 -24.5 -150.5t-72 -110.5t-116 -68.5t-157.5 -23.5h-194zM205 106h126q62 0 107.5 15.5t76 46t45.5 77t15 108.5q0 124 -61 185t-183 61h-126v-493zM32 310
q-24 0 -36.5 12.5t-12.5 34.5q0 23 12.5 35t36.5 12h323q23 0 36 -11.5t13 -35.5q0 -22 -13 -34.5t-36 -12.5h-323z" />
    <glyph glyph-name="Ntilde" unicode="&#xd1;" horiz-adv-x="748" 
d="M137 -8q-29 0 -44.5 16t-15.5 46v595q0 31 15.5 47.5t40.5 16.5q23 0 34.5 -8.5t27.5 -28.5l383 -497h-26v473q0 29 15.5 45t44.5 16t44 -16t15 -45v-600q0 -28 -14 -44t-38 -16q-23 0 -36.5 9t-29.5 29l-382 497h25v-473q0 -30 -15 -46t-44 -16zM185 769q-16 1 -25 11
t-5 27q12 56 46.5 86.5t83.5 30.5q28 0 52 -10t46 -23t42.5 -23t40.5 -10q26 0 41.5 13.5t20.5 33.5q4 14 13 20.5t22 5.5q16 -1 25 -11t5 -27q-12 -56 -45.5 -86.5t-83.5 -30.5q-28 0 -52.5 10t-46.5 23t-42.5 23t-40.5 10q-25 0 -41 -13.5t-21 -33.5q-4 -13 -12.5 -20
t-22.5 -6z" />
    <glyph glyph-name="Ograve" unicode="&#xd2;" horiz-adv-x="785" 
d="M393 -10q-102 0 -178.5 45t-118.5 126.5t-42 191.5q0 83 24 149.5t68.5 114t107 73t139.5 25.5q103 0 179 -44.5t118 -125.5t42 -191q0 -83 -24 -150t-68.5 -115t-107 -73.5t-139.5 -25.5zM393 100q65 0 110.5 30t70 87t24.5 136q0 120 -53.5 186t-151.5 66
q-64 0 -110 -29.5t-70.5 -86t-24.5 -136.5q0 -119 54 -186t151 -67zM342 771l-96 105q-13 14 -12 28.5t10.5 26t24.5 17t30.5 2t26.5 -20.5l78 -115q9 -14 5.5 -27t-15 -21.5t-26 -8t-26.5 13.5z" />
    <glyph glyph-name="Oacute" unicode="&#xd3;" horiz-adv-x="785" 
d="M393 -10q-102 0 -178.5 45t-118.5 126.5t-42 191.5q0 83 24 149.5t68.5 114t107 73t139.5 25.5q103 0 179 -44.5t118 -125.5t42 -191q0 -83 -24 -150t-68.5 -115t-107 -73.5t-139.5 -25.5zM393 100q65 0 110.5 30t70 87t24.5 136q0 120 -53.5 186t-151.5 66
q-64 0 -110 -29.5t-70.5 -86t-24.5 -136.5q0 -119 54 -186t151 -67zM443 771q-12 -13 -26.5 -13.5t-26 8t-15 21.5t5.5 27l78 115q11 17 26.5 20.5t30.5 -2t24.5 -17t10.5 -26t-12 -28.5z" />
    <glyph glyph-name="Ocircumflex" unicode="&#xd4;" horiz-adv-x="785" 
d="M393 -10q-102 0 -178.5 45t-118.5 126.5t-42 191.5q0 83 24 149.5t68.5 114t107 73t139.5 25.5q103 0 179 -44.5t118 -125.5t42 -191q0 -83 -24 -150t-68.5 -115t-107 -73.5t-139.5 -25.5zM393 100q65 0 110.5 30t70 87t24.5 136q0 120 -53.5 186t-151.5 66
q-64 0 -110 -29.5t-70.5 -86t-24.5 -136.5q0 -119 54 -186t151 -67zM308 771q-12 -13 -27 -14t-26.5 6.5t-15 20t6.5 26.5l73 101q14 21 32.5 30.5t40.5 9.5q23 0 41 -9.5t33 -30.5l72 -101q11 -14 7.5 -26.5t-15 -20t-26.5 -6.5t-27 14l-85 98z" />
    <glyph glyph-name="Otilde" unicode="&#xd5;" horiz-adv-x="785" 
d="M393 -10q-102 0 -178.5 45t-118.5 126.5t-42 191.5q0 83 24 149.5t68.5 114t107 73t139.5 25.5q103 0 179 -44.5t118 -125.5t42 -191q0 -83 -24 -150t-68.5 -115t-107 -73.5t-139.5 -25.5zM393 100q65 0 110.5 30t70 87t24.5 136q0 120 -53.5 186t-151.5 66
q-64 0 -110 -29.5t-70.5 -86t-24.5 -136.5q0 -119 54 -186t151 -67zM203 769q-16 1 -25 11t-5 27q12 56 46.5 86.5t83.5 30.5q28 0 52 -10t46 -23t42.5 -23t40.5 -10q26 0 41.5 13.5t20.5 33.5q4 14 13 20.5t22 5.5q16 -1 25 -11t5 -27q-12 -56 -45.5 -86.5t-83.5 -30.5
q-28 0 -52.5 10t-46.5 23t-42.5 23t-40.5 10q-25 0 -41 -13.5t-21 -33.5q-4 -13 -12.5 -20t-22.5 -6z" />
    <glyph glyph-name="Odieresis" unicode="&#xd6;" horiz-adv-x="785" 
d="M393 -10q-102 0 -178.5 45t-118.5 126.5t-42 191.5q0 83 24 149.5t68.5 114t107 73t139.5 25.5q103 0 179 -44.5t118 -125.5t42 -191q0 -83 -24 -150t-68.5 -115t-107 -73.5t-139.5 -25.5zM393 100q65 0 110.5 30t70 87t24.5 136q0 120 -53.5 186t-151.5 66
q-64 0 -110 -29.5t-70.5 -86t-24.5 -136.5q0 -119 54 -186t151 -67zM487 786q-30 0 -46 16t-16 46q0 29 16 45t46 16q29 0 45 -16t16 -45q0 -30 -15.5 -46t-45.5 -16zM298 786q-29 0 -45.5 16t-16.5 46q0 29 16.5 45t45.5 16q30 0 46 -16t16 -45q0 -30 -16 -46t-46 -16z" />
    <glyph glyph-name="multiply" unicode="&#xd7;" 
d="M154 78q-16 -16 -33.5 -15t-29.5 13.5t-13 30t15 33.5l145 145l-148 148q-13 13 -14.5 27.5t5 26t18.5 18.5t26.5 5t27.5 -15l147 -147l147 147q16 16 34 15t30.5 -13.5t14 -29.5t-15.5 -34l-148 -148l145 -145q13 -13 15 -27t-5 -26t-18.5 -18.5t-25.5 -5t-27 14.5
l-146 146z" />
    <glyph glyph-name="Oslash" unicode="&#xd8;" horiz-adv-x="785" 
d="M393 -10q-102 0 -178.5 45t-118.5 126.5t-42 191.5q0 83 24 149.5t68.5 114t107 73t139.5 25.5q103 0 179 -44.5t118 -125.5t42 -191q0 -83 -24 -150t-68.5 -115t-107 -73.5t-139.5 -25.5zM393 100q65 0 110.5 30t70 87t24.5 136q0 120 -53.5 186t-151.5 66
q-64 0 -110 -29.5t-70.5 -86t-24.5 -136.5q0 -119 54 -186t151 -67zM227 -29q-10 -17 -24.5 -22t-29 -1t-25 15t-13 26.5t8.5 33.5l45 75l36 60l263 451l26 48l45 77q10 17 24 22t29 1t25.5 -14.5t13 -26t-8.5 -33.5l-45 -76l-36 -60l-263 -450l-26 -48z" />
    <glyph glyph-name="Ugrave" unicode="&#xd9;" horiz-adv-x="738" 
d="M370 -10q-73 0 -128.5 19t-93.5 56.5t-57 93.5t-19 130v359q0 33 16.5 49t47.5 16t47.5 -16t16.5 -49v-358q0 -95 43.5 -142.5t126.5 -47.5t126 47.5t43 142.5v358q0 33 16.5 49t47.5 16q30 0 46.5 -16t16.5 -49v-359q0 -98 -33.5 -165t-99.5 -100.5t-163 -33.5zM320 771
l-96 105q-13 14 -12 28.5t10.5 26t24.5 17t30.5 2t26.5 -20.5l78 -115q9 -14 5.5 -27t-15 -21.5t-26 -8t-26.5 13.5z" />
    <glyph glyph-name="Uacute" unicode="&#xda;" horiz-adv-x="738" 
d="M370 -10q-73 0 -128.5 19t-93.5 56.5t-57 93.5t-19 130v359q0 33 16.5 49t47.5 16t47.5 -16t16.5 -49v-358q0 -95 43.5 -142.5t126.5 -47.5t126 47.5t43 142.5v358q0 33 16.5 49t47.5 16q30 0 46.5 -16t16.5 -49v-359q0 -98 -33.5 -165t-99.5 -100.5t-163 -33.5zM421 771
q-12 -13 -26.5 -13.5t-26 8t-15 21.5t5.5 27l78 115q11 17 26.5 20.5t30.5 -2t24.5 -17t10.5 -26t-12 -28.5z" />
    <glyph glyph-name="Ucircumflex" unicode="&#xdb;" horiz-adv-x="738" 
d="M370 -10q-73 0 -128.5 19t-93.5 56.5t-57 93.5t-19 130v359q0 33 16.5 49t47.5 16t47.5 -16t16.5 -49v-358q0 -95 43.5 -142.5t126.5 -47.5t126 47.5t43 142.5v358q0 33 16.5 49t47.5 16q30 0 46.5 -16t16.5 -49v-359q0 -98 -33.5 -165t-99.5 -100.5t-163 -33.5zM286 771
q-12 -13 -27 -14t-26.5 6.5t-15 20t6.5 26.5l73 101q14 21 32.5 30.5t40.5 9.5q23 0 41 -9.5t33 -30.5l72 -101q11 -14 7.5 -26.5t-15 -20t-26.5 -6.5t-27 14l-85 98z" />
    <glyph glyph-name="Udieresis" unicode="&#xdc;" horiz-adv-x="738" 
d="M370 -10q-73 0 -128.5 19t-93.5 56.5t-57 93.5t-19 130v359q0 33 16.5 49t47.5 16t47.5 -16t16.5 -49v-358q0 -95 43.5 -142.5t126.5 -47.5t126 47.5t43 142.5v358q0 33 16.5 49t47.5 16q30 0 46.5 -16t16.5 -49v-359q0 -98 -33.5 -165t-99.5 -100.5t-163 -33.5zM465 786
q-30 0 -46 16t-16 46q0 29 16 45t46 16q29 0 45 -16t16 -45q0 -30 -15.5 -46t-45.5 -16zM276 786q-29 0 -45.5 16t-16.5 46q0 29 16.5 45t45.5 16q30 0 46 -16t16 -45q0 -30 -16 -46t-46 -16z" />
    <glyph glyph-name="Yacute" unicode="&#xdd;" horiz-adv-x="618" 
d="M309 -8q-31 0 -47.5 17.5t-16.5 49.5v304l27 -77l-241 339q-13 18 -11.5 38.5t16.5 35t42 14.5q20 0 36.5 -10t31.5 -31l179 -254h-28l180 254q16 22 31 31.5t37 9.5q26 0 40.5 -13.5t15 -33.5t-14.5 -42l-239 -338l26 77v-304q0 -67 -64 -67zM360 771
q-12 -13 -26.5 -13.5t-26 8t-15 21.5t5.5 27l78 115q11 17 26.5 20.5t30.5 -2t24.5 -17t10.5 -26t-12 -28.5z" />
    <glyph glyph-name="Thorn" unicode="&#xde;" horiz-adv-x="655" 
d="M141 -3q-31 0 -47.5 17.5t-16.5 48.5v580q0 32 17.5 48.5t48.5 16.5q30 0 46 -16t16 -42v-63h180q116 0 179 -58t63 -162t-63 -162.5t-179 -58.5h-180v-83q0 -31 -16 -48.5t-48 -17.5zM205 247h160q68 0 103 30.5t35 89.5t-35 89t-103 30h-160v-239z" />
    <glyph glyph-name="germandbls" unicode="&#xdf;" horiz-adv-x="653" 
d="M436 -10q-43 0 -87.5 11t-81.5 33q-16 10 -22 24t-3.5 28.5t12 25t23.5 13t30 -6.5q33 -19 68.5 -26.5t62.5 -7.5q37 0 58 15t21 43q0 23 -20.5 38.5t-74.5 31.5q-79 24 -111 57t-32 82q0 21 6 41t22 42t44 48q26 25 36.5 43.5t10.5 39.5q0 27 -19.5 43t-57.5 16
q-64 0 -97.5 -38t-33.5 -108v-422q0 -31 -16.5 -47.5t-46.5 -16.5t-46 16.5t-16 47.5v403q0 123 66.5 189.5t190.5 66.5q61 0 104.5 -17t66.5 -48t23 -74q0 -35 -15 -65t-53 -65q-21 -20 -33 -33.5t-16.5 -24t-4.5 -22.5q0 -21 20.5 -36.5t77.5 -32.5q74 -22 106.5 -58
t32.5 -90q0 -48 -24 -83.5t-68 -55.5t-103 -20z" />
    <glyph glyph-name="agrave" unicode="&#xe0;" horiz-adv-x="547" 
d="M226 -10q-53 0 -94.5 20.5t-65 55.5t-23.5 79q0 54 28 85.5t91 45.5t169 14h50v-72h-49q-62 0 -99 -6t-52.5 -20.5t-15.5 -40.5q0 -33 23 -54t64 -21q33 0 58.5 15.5t40.5 42.5t15 62v115q0 50 -22 72t-74 22q-29 0 -62.5 -7t-70.5 -24q-19 -9 -33.5 -5t-22.5 16.5
t-8 27.5t8 29.5t27 21.5q46 19 88.5 27t77.5 8q72 0 118.5 -22t69.5 -66.5t23 -114.5v-240q0 -31 -15 -47.5t-43 -16.5t-43.5 16.5t-15.5 47.5v48h8q-7 -35 -27.5 -60.5t-51.5 -39.5t-71 -14zM233 560l-97 140q-11 17 -8.5 32t14 26t27 15t31 -1.5t24.5 -24.5l75 -149
q8 -16 3 -29t-18 -20t-27 -5t-24 16z" />
    <glyph glyph-name="aacute" unicode="&#xe1;" horiz-adv-x="547" 
d="M226 -10q-53 0 -94.5 20.5t-65 55.5t-23.5 79q0 54 28 85.5t91 45.5t169 14h50v-72h-49q-62 0 -99 -6t-52.5 -20.5t-15.5 -40.5q0 -33 23 -54t64 -21q33 0 58.5 15.5t40.5 42.5t15 62v115q0 50 -22 72t-74 22q-29 0 -62.5 -7t-70.5 -24q-19 -9 -33.5 -5t-22.5 16.5
t-8 27.5t8 29.5t27 21.5q46 19 88.5 27t77.5 8q72 0 118.5 -22t69.5 -66.5t23 -114.5v-240q0 -31 -15 -47.5t-43 -16.5t-43.5 16.5t-15.5 47.5v48h8q-7 -35 -27.5 -60.5t-51.5 -39.5t-71 -14zM326 560q-10 -14 -24 -16t-27 5t-18.5 20t2.5 29l76 149q9 19 24 24.5t31 1.5
t27.5 -15t14 -26.5t-8.5 -31.5z" />
    <glyph glyph-name="acircumflex" unicode="&#xe2;" horiz-adv-x="547" 
d="M226 -10q-53 0 -94.5 20.5t-65 55.5t-23.5 79q0 54 28 85.5t91 45.5t169 14h50v-72h-49q-62 0 -99 -6t-52.5 -20.5t-15.5 -40.5q0 -33 23 -54t64 -21q33 0 58.5 15.5t40.5 42.5t15 62v115q0 50 -22 72t-74 22q-29 0 -62.5 -7t-70.5 -24q-19 -9 -33.5 -5t-22.5 16.5
t-8 27.5t8 29.5t27 21.5q46 19 88.5 27t77.5 8q72 0 118.5 -22t69.5 -66.5t23 -114.5v-240q0 -31 -15 -47.5t-43 -16.5t-43.5 16.5t-15.5 47.5v48h8q-7 -35 -27.5 -60.5t-51.5 -39.5t-71 -14zM421 597q9 -16 4 -29t-17 -19.5t-25.5 -4.5t-22.5 16l-81 126l-81 -126
q-9 -14 -22.5 -16t-25.5 4.5t-17 19.5t4 29l72 132q12 23 29.5 34t40.5 11t41 -11t30 -34z" />
    <glyph glyph-name="atilde" unicode="&#xe3;" horiz-adv-x="547" 
d="M226 -10q-53 0 -94.5 20.5t-65 55.5t-23.5 79q0 54 28 85.5t91 45.5t169 14h50v-72h-49q-62 0 -99 -6t-52.5 -20.5t-15.5 -40.5q0 -33 23 -54t64 -21q33 0 58.5 15.5t40.5 42.5t15 62v115q0 50 -22 72t-74 22q-29 0 -62.5 -7t-70.5 -24q-19 -9 -33.5 -5t-22.5 16.5
t-8 27.5t8 29.5t27 21.5q46 19 88.5 27t77.5 8q72 0 118.5 -22t69.5 -66.5t23 -114.5v-240q0 -31 -15 -47.5t-43 -16.5t-43.5 16.5t-15.5 47.5v48h8q-7 -35 -27.5 -60.5t-51.5 -39.5t-71 -14zM116 581q-15 1 -23 10t-4 28q4 21 12.5 41.5t22.5 37.5t34 27.5t47 10.5
q25 0 44 -10t35 -23t32 -23t35 -10q21 0 36.5 14.5t19.5 36.5q2 11 10.5 17t24.5 5q15 -1 23 -10t4 -28q-5 -27 -19 -54t-37.5 -45t-59.5 -18q-25 0 -44 10t-35.5 23t-32.5 23t-34 10q-21 0 -36 -14t-20 -37q-2 -11 -10.5 -17t-24.5 -5z" />
    <glyph glyph-name="adieresis" unicode="&#xe4;" horiz-adv-x="547" 
d="M226 -10q-53 0 -94.5 20.5t-65 55.5t-23.5 79q0 54 28 85.5t91 45.5t169 14h50v-72h-49q-62 0 -99 -6t-52.5 -20.5t-15.5 -40.5q0 -33 23 -54t64 -21q33 0 58.5 15.5t40.5 42.5t15 62v115q0 50 -22 72t-74 22q-29 0 -62.5 -7t-70.5 -24q-19 -9 -33.5 -5t-22.5 16.5
t-8 27.5t8 29.5t27 21.5q46 19 88.5 27t77.5 8q72 0 118.5 -22t69.5 -66.5t23 -114.5v-240q0 -31 -15 -47.5t-43 -16.5t-43.5 16.5t-15.5 47.5v48h8q-7 -35 -27.5 -60.5t-51.5 -39.5t-71 -14zM374 593q-30 0 -46 16t-16 46q0 29 16 45t46 16q29 0 45 -16t16 -45
q0 -30 -15.5 -46t-45.5 -16zM185 593q-29 0 -45.5 16t-16.5 46q0 29 16.5 45t45.5 16q30 0 46 -16t16 -45q0 -30 -16 -46t-46 -16z" />
    <glyph glyph-name="aring" unicode="&#xe5;" horiz-adv-x="547" 
d="M226 -10q-53 0 -94.5 20.5t-65 55.5t-23.5 79q0 54 28 85.5t91 45.5t169 14h50v-72h-49q-62 0 -99 -6t-52.5 -20.5t-15.5 -40.5q0 -33 23 -54t64 -21q33 0 58.5 15.5t40.5 42.5t15 62v115q0 50 -22 72t-74 22q-29 0 -62.5 -7t-70.5 -24q-19 -9 -33.5 -5t-22.5 16.5
t-8 27.5t8 29.5t27 21.5q46 19 88.5 27t77.5 8q72 0 118.5 -22t69.5 -66.5t23 -114.5v-240q0 -31 -15 -47.5t-43 -16.5t-43.5 16.5t-15.5 47.5v48h8q-7 -35 -27.5 -60.5t-51.5 -39.5t-71 -14zM279 546q-35 0 -64 16.5t-45.5 44.5t-16.5 62q0 35 16.5 62.5t45.5 43.5t64 16
q36 0 64.5 -16t45 -43.5t16.5 -62.5q0 -34 -16.5 -62t-45 -44.5t-64.5 -16.5zM279 603q29 0 47 19t18 47t-18 46.5t-47 18.5q-28 0 -46.5 -18.5t-18.5 -46.5t18.5 -47t46.5 -19z" />
    <glyph glyph-name="ae" unicode="&#xe6;" horiz-adv-x="865" 
d="M236 -10q-58 0 -101.5 20.5t-67.5 55.5t-24 79q0 54 28 85.5t91.5 45.5t171.5 14h45v-72h-47q-62 0 -99 -6t-52.5 -20.5t-15.5 -40.5q0 -33 23 -54t65 -21q34 0 59 16t39.5 44t14.5 64v111q0 50 -22.5 72t-72.5 22q-29 0 -62.5 -7t-70.5 -24q-19 -9 -33.5 -5t-22.5 16.5
t-8 27.5t8 29.5t27 21.5q46 19 88.5 27t77.5 8q69 0 114.5 -25t64.5 -77h-28q26 50 77 76t106 26q51 0 92 -17t70 -48.5t44.5 -77t15.5 -102.5v-2q0 -18 -12.5 -26t-35.5 -8h-306v72h265l-15 -15q0 45 -13 76t-38.5 47t-63.5 16q-39 0 -67.5 -18.5t-43.5 -53.5t-15 -85v-7
q0 -83 36 -124t111 -41q26 0 58.5 6.5t61.5 22.5q21 12 37 10.5t25.5 -11.5t11.5 -24.5t-5.5 -29.5t-25.5 -26q-35 -22 -80.5 -32.5t-84.5 -10.5q-83 0 -143.5 34.5t-84.5 104.5h23q-16 -65 -66 -102t-124 -37z" />
    <glyph glyph-name="ccedilla" unicode="&#xe7;" horiz-adv-x="472" 
d="M291 -10q-77 0 -134 31.5t-88 89.5t-31 136q0 59 17.5 105.5t50.5 79t80 50t105 17.5q33 0 71.5 -9t72.5 -30q16 -10 21 -24t2 -28.5t-12.5 -25t-23.5 -13t-31 6.5q-22 13 -45 19.5t-44 6.5q-33 0 -58 -10.5t-42.5 -30t-26.5 -48.5t-9 -67q0 -74 35.5 -116.5t100.5 -42.5
q21 0 43.5 6t45.5 19q17 9 30.5 6t22.5 -13.5t11 -25t-3.5 -28.5t-20.5 -23q-33 -20 -70 -29t-70 -9zM285 -195q-19 0 -40 2.5t-38 8.5q-15 5 -20.5 16.5t-2 23t14 17.5t25.5 0q13 -4 25 -6t26 -2q26 0 40 7.5t14 22.5q0 11 -8.5 17t-28.5 6q-7 0 -14.5 -0.5t-15.5 -2.5
q-7 -2 -12.5 -1.5t-10.5 4.5q-4 4 -5 10t0 16l11 76h67l-13 -76l-32 11q12 4 24 6t22 2q41 0 66 -19t25 -53q0 -39 -33 -62.5t-86 -23.5z" />
    <glyph glyph-name="egrave" unicode="&#xe8;" horiz-adv-x="542" 
d="M306 -10q-83 0 -143 31t-92.5 88t-32.5 135q0 76 31.5 133t87 89.5t126.5 32.5q52 0 93.5 -17t71 -49t45 -77.5t15.5 -102.5q0 -18 -12.5 -27.5t-35.5 -9.5h-321v72h281l-16 -15q0 46 -13.5 77t-39 47.5t-63.5 16.5q-42 0 -71.5 -19.5t-45 -55t-15.5 -84.5v-7
q0 -82 38.5 -122.5t113.5 -40.5q26 0 58.5 6.5t61.5 22.5q21 12 37 10.5t25.5 -11.5t11.5 -24.5t-5.5 -29.5t-25.5 -26q-35 -22 -80.5 -32.5t-84.5 -10.5zM238 560l-97 140q-11 17 -8.5 32t14 26t27 15t31 -1.5t24.5 -24.5l75 -149q8 -16 3 -29t-18 -20t-27 -5t-24 16z" />
    <glyph glyph-name="eacute" unicode="&#xe9;" horiz-adv-x="542" 
d="M306 -10q-83 0 -143 31t-92.5 88t-32.5 135q0 76 31.5 133t87 89.5t126.5 32.5q52 0 93.5 -17t71 -49t45 -77.5t15.5 -102.5q0 -18 -12.5 -27.5t-35.5 -9.5h-321v72h281l-16 -15q0 46 -13.5 77t-39 47.5t-63.5 16.5q-42 0 -71.5 -19.5t-45 -55t-15.5 -84.5v-7
q0 -82 38.5 -122.5t113.5 -40.5q26 0 58.5 6.5t61.5 22.5q21 12 37 10.5t25.5 -11.5t11.5 -24.5t-5.5 -29.5t-25.5 -26q-35 -22 -80.5 -32.5t-84.5 -10.5zM331 560q-10 -14 -24 -16t-27 5t-18.5 20t2.5 29l76 149q9 19 24 24.5t31 1.5t27.5 -15t14 -26.5t-8.5 -31.5z" />
    <glyph glyph-name="ecircumflex" unicode="&#xea;" horiz-adv-x="542" 
d="M306 -10q-83 0 -143 31t-92.5 88t-32.5 135q0 76 31.5 133t87 89.5t126.5 32.5q52 0 93.5 -17t71 -49t45 -77.5t15.5 -102.5q0 -18 -12.5 -27.5t-35.5 -9.5h-321v72h281l-16 -15q0 46 -13.5 77t-39 47.5t-63.5 16.5q-42 0 -71.5 -19.5t-45 -55t-15.5 -84.5v-7
q0 -82 38.5 -122.5t113.5 -40.5q26 0 58.5 6.5t61.5 22.5q21 12 37 10.5t25.5 -11.5t11.5 -24.5t-5.5 -29.5t-25.5 -26q-35 -22 -80.5 -32.5t-84.5 -10.5zM426 597q9 -16 4 -29t-17 -19.5t-25.5 -4.5t-22.5 16l-81 126l-81 -126q-9 -14 -22.5 -16t-25.5 4.5t-17 19.5t4 29
l72 132q12 23 29.5 34t40.5 11t41 -11t30 -34z" />
    <glyph glyph-name="edieresis" unicode="&#xeb;" horiz-adv-x="542" 
d="M306 -10q-83 0 -143 31t-92.5 88t-32.5 135q0 76 31.5 133t87 89.5t126.5 32.5q52 0 93.5 -17t71 -49t45 -77.5t15.5 -102.5q0 -18 -12.5 -27.5t-35.5 -9.5h-321v72h281l-16 -15q0 46 -13.5 77t-39 47.5t-63.5 16.5q-42 0 -71.5 -19.5t-45 -55t-15.5 -84.5v-7
q0 -82 38.5 -122.5t113.5 -40.5q26 0 58.5 6.5t61.5 22.5q21 12 37 10.5t25.5 -11.5t11.5 -24.5t-5.5 -29.5t-25.5 -26q-35 -22 -80.5 -32.5t-84.5 -10.5zM379 593q-30 0 -46 16t-16 46q0 29 16 45t46 16q29 0 45 -16t16 -45q0 -30 -15.5 -46t-45.5 -16zM190 593
q-29 0 -45.5 16t-16.5 46q0 29 16.5 45t45.5 16q30 0 46 -16t16 -45q0 -30 -16 -46t-46 -16z" />
    <glyph glyph-name="igrave" unicode="&#xec;" horiz-adv-x="255" 
d="M127 -7q-30 0 -46 18t-16 50v367q0 33 16 50.5t46 17.5t46.5 -17.5t16.5 -50.5v-367q0 -32 -16 -50t-47 -18zM81 560l-97 140q-11 17 -8.5 32t14 26t27 15t31 -1.5t24.5 -24.5l75 -149q8 -16 3 -29t-18 -20t-27 -5t-24 16z" />
    <glyph glyph-name="iacute" unicode="&#xed;" horiz-adv-x="255" 
d="M127 -7q-30 0 -46 18t-16 50v367q0 33 16 50.5t46 17.5t46.5 -17.5t16.5 -50.5v-367q0 -32 -16 -50t-47 -18zM174 560q-10 -14 -24 -16t-27 5t-18.5 20t2.5 29l76 149q9 19 24 24.5t31 1.5t27.5 -15t14 -26.5t-8.5 -31.5z" />
    <glyph glyph-name="icircumflex" unicode="&#xee;" horiz-adv-x="255" 
d="M127 -7q-30 0 -46 18t-16 50v367q0 33 16 50.5t46 17.5t46.5 -17.5t16.5 -50.5v-367q0 -32 -16 -50t-47 -18zM269 597q9 -16 4 -29t-17 -19.5t-25.5 -4.5t-22.5 16l-81 126l-81 -126q-9 -14 -22.5 -16t-25.5 4.5t-17 19.5t4 29l72 132q12 23 29.5 34t40.5 11t41 -11
t30 -34z" />
    <glyph glyph-name="idieresis" unicode="&#xef;" horiz-adv-x="255" 
d="M127 -7q-30 0 -46 18t-16 50v367q0 33 16 50.5t46 17.5t46.5 -17.5t16.5 -50.5v-367q0 -32 -16 -50t-47 -18zM222 593q-30 0 -46 16t-16 46q0 29 16 45t46 16q29 0 45 -16t16 -45q0 -30 -15.5 -46t-45.5 -16zM33 593q-29 0 -45.5 16t-16.5 46q0 29 16.5 45t45.5 16
q30 0 46 -16t16 -45q0 -30 -16 -46t-46 -16z" />
    <glyph glyph-name="eth" unicode="&#xf0;" horiz-adv-x="581" 
d="M283 -10q-73 0 -128 29.5t-86 81.5t-31 121q0 68 30 119t83 80t122 29q46 0 82.5 -14t61.5 -43.5t35 -77.5h-27q1 86 -37 148.5t-91 98.5l19 -1l-145 -66q-22 -10 -38.5 -4t-23 20t0 30.5t30.5 26.5l95 43l4 -14q-17 8 -36 15t-39 13q-24 7 -33 22.5t-5 31.5t19.5 25
t41.5 3q45 -10 83 -26.5t72 -36.5l-32 1l123 56q22 10 38.5 4t23.5 -20t1.5 -29.5t-28.5 -25.5l-79 -36l4 14q48 -39 81.5 -89t51 -108t17.5 -123q0 -70 -17 -125.5t-50.5 -94t-81.5 -58.5t-111 -20zM287 86q39 0 67 16.5t42.5 47.5t14.5 72q0 62 -32.5 98t-91.5 36
q-38 0 -65.5 -16.5t-42.5 -46.5t-15 -71q0 -64 32.5 -100t90.5 -36z" />
    <glyph glyph-name="ntilde" unicode="&#xf1;" horiz-adv-x="585" 
d="M127 -8q-30 0 -46 16.5t-16 47.5v378q0 31 16 47t45 16t45 -16t16 -47v-68l-11 25q22 53 68.5 80.5t105.5 27.5t97 -22t57 -66.5t19 -112.5v-242q0 -31 -16 -47.5t-46 -16.5t-46.5 16.5t-16.5 47.5v236q0 57 -21.5 83t-66.5 26q-55 0 -87.5 -34.5t-32.5 -91.5v-219
q0 -64 -63 -64zM131 581q-15 1 -23 10t-4 28q4 21 12.5 41.5t22.5 37.5t34 27.5t47 10.5q25 0 44 -10t35 -23t32 -23t35 -10q21 0 36.5 14.5t19.5 36.5q2 11 10.5 17t24.5 5q15 -1 23 -10t4 -28q-5 -27 -19 -54t-37.5 -45t-59.5 -18q-25 0 -44 10t-35.5 23t-32.5 23t-34 10
q-21 0 -36 -14t-20 -37q-2 -11 -10.5 -17t-24.5 -5z" />
    <glyph glyph-name="ograve" unicode="&#xf2;" horiz-adv-x="576" 
d="M288 -10q-76 0 -132 31t-87 88.5t-31 135.5q0 59 17.5 105.5t50.5 80t79 51t103 17.5q76 0 132 -31t87 -88t31 -135q0 -59 -17.5 -106t-50.5 -80.5t-79 -51t-103 -17.5zM288 85q37 0 65 18t43.5 53.5t15.5 88.5q0 80 -34 119.5t-90 39.5q-37 0 -65 -17.5t-43.5 -53
t-15.5 -88.5q0 -79 34 -119.5t90 -40.5zM242 560l-97 140q-11 17 -8.5 32t14 26t27 15t31 -1.5t24.5 -24.5l75 -149q8 -16 3 -29t-18 -20t-27 -5t-24 16z" />
    <glyph glyph-name="oacute" unicode="&#xf3;" horiz-adv-x="576" 
d="M288 -10q-76 0 -132 31t-87 88.5t-31 135.5q0 59 17.5 105.5t50.5 80t79 51t103 17.5q76 0 132 -31t87 -88t31 -135q0 -59 -17.5 -106t-50.5 -80.5t-79 -51t-103 -17.5zM288 85q37 0 65 18t43.5 53.5t15.5 88.5q0 80 -34 119.5t-90 39.5q-37 0 -65 -17.5t-43.5 -53
t-15.5 -88.5q0 -79 34 -119.5t90 -40.5zM335 560q-10 -14 -24 -16t-27 5t-18.5 20t2.5 29l76 149q9 19 24 24.5t31 1.5t27.5 -15t14 -26.5t-8.5 -31.5z" />
    <glyph glyph-name="ocircumflex" unicode="&#xf4;" horiz-adv-x="576" 
d="M288 -10q-76 0 -132 31t-87 88.5t-31 135.5q0 59 17.5 105.5t50.5 80t79 51t103 17.5q76 0 132 -31t87 -88t31 -135q0 -59 -17.5 -106t-50.5 -80.5t-79 -51t-103 -17.5zM288 85q37 0 65 18t43.5 53.5t15.5 88.5q0 80 -34 119.5t-90 39.5q-37 0 -65 -17.5t-43.5 -53
t-15.5 -88.5q0 -79 34 -119.5t90 -40.5zM430 597q9 -16 4 -29t-17 -19.5t-25.5 -4.5t-22.5 16l-81 126l-81 -126q-9 -14 -22.5 -16t-25.5 4.5t-17 19.5t4 29l72 132q12 23 29.5 34t40.5 11t41 -11t30 -34z" />
    <glyph glyph-name="otilde" unicode="&#xf5;" horiz-adv-x="576" 
d="M288 -10q-76 0 -132 31t-87 88.5t-31 135.5q0 59 17.5 105.5t50.5 80t79 51t103 17.5q76 0 132 -31t87 -88t31 -135q0 -59 -17.5 -106t-50.5 -80.5t-79 -51t-103 -17.5zM288 85q37 0 65 18t43.5 53.5t15.5 88.5q0 80 -34 119.5t-90 39.5q-37 0 -65 -17.5t-43.5 -53
t-15.5 -88.5q0 -79 34 -119.5t90 -40.5zM125 581q-15 1 -23 10t-4 28q4 21 12.5 41.5t22.5 37.5t34 27.5t47 10.5q25 0 44 -10t35 -23t32 -23t35 -10q21 0 36.5 14.5t19.5 36.5q2 11 10.5 17t24.5 5q15 -1 23 -10t4 -28q-5 -27 -19 -54t-37.5 -45t-59.5 -18q-25 0 -44 10
t-35.5 23t-32.5 23t-34 10q-21 0 -36 -14t-20 -37q-2 -11 -10.5 -17t-24.5 -5z" />
    <glyph glyph-name="odieresis" unicode="&#xf6;" horiz-adv-x="576" 
d="M288 -10q-76 0 -132 31t-87 88.5t-31 135.5q0 59 17.5 105.5t50.5 80t79 51t103 17.5q76 0 132 -31t87 -88t31 -135q0 -59 -17.5 -106t-50.5 -80.5t-79 -51t-103 -17.5zM288 85q37 0 65 18t43.5 53.5t15.5 88.5q0 80 -34 119.5t-90 39.5q-37 0 -65 -17.5t-43.5 -53
t-15.5 -88.5q0 -79 34 -119.5t90 -40.5zM383 593q-30 0 -46 16t-16 46q0 29 16 45t46 16q29 0 45 -16t16 -45q0 -30 -15.5 -46t-45.5 -16zM194 593q-29 0 -45.5 16t-16.5 46q0 29 16.5 45t45.5 16q30 0 46 -16t16 -45q0 -30 -16 -46t-46 -16z" />
    <glyph glyph-name="divide" unicode="&#xf7;" 
d="M93 243q-21 0 -33 11.5t-12 32.5t12 32.5t33 11.5h414q22 0 33.5 -11.5t11.5 -32.5t-11.5 -32.5t-33.5 -11.5h-414zM294 35q-26 0 -40.5 14.5t-14.5 40.5t14.5 40.5t40.5 14.5t40.5 -14t14.5 -41q0 -26 -14 -40.5t-41 -14.5zM294 429q-26 0 -40.5 14.5t-14.5 40.5
t14.5 40.5t40.5 14.5t40.5 -14t14.5 -41q0 -26 -14 -40.5t-41 -14.5z" />
    <glyph glyph-name="oslash" unicode="&#xf8;" horiz-adv-x="576" 
d="M288 -10q-76 0 -132 31t-87 88.5t-31 135.5q0 59 17.5 105.5t50.5 80t79 51t103 17.5q76 0 132 -31t87 -88t31 -135q0 -59 -17.5 -106t-50.5 -80.5t-79 -51t-103 -17.5zM288 85q37 0 65 18t43.5 53.5t15.5 88.5q0 80 -34 119.5t-90 39.5q-37 0 -65 -17.5t-43.5 -53
t-15.5 -88.5q0 -79 34 -119.5t90 -40.5zM171 -34q-10 -17 -25.5 -19.5t-29 5.5t-18.5 23t6 33l302 516q10 17 25.5 19t29 -6t19 -23t-5.5 -33z" />
    <glyph glyph-name="ugrave" unicode="&#xf9;" horiz-adv-x="579" 
d="M242 -10q-61 0 -101 22.5t-59.5 67.5t-19.5 112v242q0 32 16 47.5t46 15.5t46.5 -15.5t16.5 -47.5v-244q0 -52 21 -77t67 -25q50 0 82 34.5t32 91.5v220q0 32 16 47.5t46 15.5t46.5 -15.5t16.5 -47.5v-378q0 -64 -61 -64q-29 0 -45 16.5t-16 47.5v76l14 -30
q-21 -54 -63.5 -83t-100.5 -29zM243 561l-97 140q-11 17 -8.5 32t14 26t27 15t31 -1.5t24.5 -24.5l75 -149q8 -16 3 -29t-18 -20t-27 -5t-24 16z" />
    <glyph glyph-name="uacute" unicode="&#xfa;" horiz-adv-x="579" 
d="M242 -10q-61 0 -101 22.5t-59.5 67.5t-19.5 112v242q0 32 16 47.5t46 15.5t46.5 -15.5t16.5 -47.5v-244q0 -52 21 -77t67 -25q50 0 82 34.5t32 91.5v220q0 32 16 47.5t46 15.5t46.5 -15.5t16.5 -47.5v-378q0 -64 -61 -64q-29 0 -45 16.5t-16 47.5v76l14 -30
q-21 -54 -63.5 -83t-100.5 -29zM336 561q-10 -14 -24 -16t-27 5t-18.5 20t2.5 29l76 149q9 19 24 24.5t31 1.5t27.5 -15t14 -26.5t-8.5 -31.5z" />
    <glyph glyph-name="ucircumflex" unicode="&#xfb;" horiz-adv-x="579" 
d="M242 -10q-61 0 -101 22.5t-59.5 67.5t-19.5 112v242q0 32 16 47.5t46 15.5t46.5 -15.5t16.5 -47.5v-244q0 -52 21 -77t67 -25q50 0 82 34.5t32 91.5v220q0 32 16 47.5t46 15.5t46.5 -15.5t16.5 -47.5v-378q0 -64 -61 -64q-29 0 -45 16.5t-16 47.5v76l14 -30
q-21 -54 -63.5 -83t-100.5 -29zM431 598q9 -16 4 -29t-17 -19.5t-25.5 -4.5t-22.5 16l-81 126l-81 -126q-9 -14 -22.5 -16t-25.5 4.5t-17 19.5t4 29l72 132q12 23 29.5 34t40.5 11t41 -11t30 -34z" />
    <glyph glyph-name="udieresis" unicode="&#xfc;" horiz-adv-x="579" 
d="M242 -10q-61 0 -101 22.5t-59.5 67.5t-19.5 112v242q0 32 16 47.5t46 15.5t46.5 -15.5t16.5 -47.5v-244q0 -52 21 -77t67 -25q50 0 82 34.5t32 91.5v220q0 32 16 47.5t46 15.5t46.5 -15.5t16.5 -47.5v-378q0 -64 -61 -64q-29 0 -45 16.5t-16 47.5v76l14 -30
q-21 -54 -63.5 -83t-100.5 -29zM384 594q-30 0 -46 16t-16 46q0 29 16 45t46 16q29 0 45 -16t16 -45q0 -30 -15.5 -46t-45.5 -16zM195 594q-29 0 -45.5 16t-16.5 46q0 29 16.5 45t45.5 16q30 0 46 -16t16 -45q0 -30 -16 -46t-46 -16z" />
    <glyph glyph-name="yacute" unicode="&#xfd;" horiz-adv-x="526" 
d="M189 -188q-22 0 -36 11.5t-16.5 30.5t6.5 40l68 151v-52l-182 421q-9 22 -6 41t18.5 30.5t42.5 11.5q23 0 37 -10.5t25 -39.5l135 -337h-30l138 338q11 28 26 38.5t40 10.5q22 0 35 -11.5t16 -30t-7 -40.5l-243 -555q-13 -28 -28 -38t-39 -10zM311 560q-10 -14 -24 -16
t-27 5t-18.5 20t2.5 29l76 149q9 19 24 24.5t31 1.5t27.5 -15t14 -26.5t-8.5 -31.5z" />
    <glyph glyph-name="thorn" unicode="&#xfe;" 
d="M127 -188q-30 0 -46 16t-16 47v775q0 31 16.5 47t45.5 16q30 0 46.5 -16t16.5 -47v-264h-13q15 51 61.5 82t108.5 31q64 0 112.5 -31t75.5 -87.5t27 -135.5q0 -78 -27 -135.5t-75 -88.5t-113 -31q-61 0 -107 30.5t-62 79.5h12v-225q0 -31 -16.5 -47t-46.5 -16zM312 85
q37 0 65 18t43.5 53.5t15.5 88.5q0 80 -34 119.5t-90 39.5q-37 0 -65 -17.5t-43.5 -53t-15.5 -88.5q0 -79 34 -119.5t90 -40.5z" />
    <glyph glyph-name="ydieresis" unicode="&#xff;" horiz-adv-x="526" 
d="M189 -188q-22 0 -36 11.5t-16.5 30.5t6.5 40l68 151v-52l-182 421q-9 22 -6 41t18.5 30.5t42.5 11.5q23 0 37 -10.5t25 -39.5l135 -337h-30l138 338q11 28 26 38.5t40 10.5q22 0 35 -11.5t16 -30t-7 -40.5l-243 -555q-13 -28 -28 -38t-39 -10zM359 593q-30 0 -46 16
t-16 46q0 29 16 45t46 16q29 0 45 -16t16 -45q0 -30 -15.5 -46t-45.5 -16zM170 593q-29 0 -45.5 16t-16.5 46q0 29 16.5 45t45.5 16q30 0 46 -16t16 -45q0 -30 -16 -46t-46 -16z" />
    <glyph glyph-name="Amacron" unicode="&#x100;" horiz-adv-x="744" 
d="M84 -8q-24 0 -38.5 11t-17.5 29.5t7 41.5l264 585q13 29 31.5 41.5t42.5 12.5q23 0 41.5 -12.5t31.5 -41.5l265 -585q11 -23 8 -42t-17 -29.5t-37 -10.5q-28 0 -43.5 13.5t-27.5 41.5l-65 151l54 -35h-422l54 35l-64 -151q-13 -29 -27 -42t-40 -13zM371 566l-140 -333
l-26 32h334l-25 -32l-141 333h-2zM235 806q-39 0 -39 37q0 18 10 27.5t29 9.5h277q39 0 39 -37q0 -17 -10 -27t-29 -10h-277z" />
    <glyph glyph-name="amacron" unicode="&#x101;" horiz-adv-x="547" 
d="M226 -10q-53 0 -94.5 20.5t-65 55.5t-23.5 79q0 54 28 85.5t91 45.5t169 14h50v-72h-49q-62 0 -99 -6t-52.5 -20.5t-15.5 -40.5q0 -33 23 -54t64 -21q33 0 58.5 15.5t40.5 42.5t15 62v115q0 50 -22 72t-74 22q-29 0 -62.5 -7t-70.5 -24q-19 -9 -33.5 -5t-22.5 16.5
t-8 27.5t8 29.5t27 21.5q46 19 88.5 27t77.5 8q72 0 118.5 -22t69.5 -66.5t23 -114.5v-240q0 -31 -15 -47.5t-43 -16.5t-43.5 16.5t-15.5 47.5v48h8q-7 -35 -27.5 -60.5t-51.5 -39.5t-71 -14zM156 616q-39 0 -39 37q0 18 10 27.5t29 9.5h247q39 0 39 -37q0 -17 -10 -27
t-29 -10h-247z" />
    <glyph glyph-name="Abreve" unicode="&#x102;" horiz-adv-x="744" 
d="M84 -8q-24 0 -38.5 11t-17.5 29.5t7 41.5l264 585q13 29 31.5 41.5t42.5 12.5q23 0 41.5 -12.5t31.5 -41.5l265 -585q11 -23 8 -42t-17 -29.5t-37 -10.5q-28 0 -43.5 13.5t-27.5 41.5l-65 151l54 -35h-422l54 35l-64 -151q-13 -29 -27 -42t-40 -13zM371 566l-140 -333
l-26 32h334l-25 -32l-141 333h-2zM373 760q-65 0 -112.5 34.5t-64.5 98.5q-5 20 4.5 33t23.5 14q14 2 23 -2.5t14 -11.5t7 -15q10 -41 40.5 -58.5t64.5 -17.5q35 0 65 17.5t40 58.5q2 8 7 15t14 11.5t23 2.5q14 -1 23.5 -14t4.5 -33q-16 -64 -64 -98.5t-113 -34.5z" />
    <glyph glyph-name="abreve" unicode="&#x103;" horiz-adv-x="547" 
d="M226 -10q-53 0 -94.5 20.5t-65 55.5t-23.5 79q0 54 28 85.5t91 45.5t169 14h50v-72h-49q-62 0 -99 -6t-52.5 -20.5t-15.5 -40.5q0 -33 23 -54t64 -21q33 0 58.5 15.5t40.5 42.5t15 62v115q0 50 -22 72t-74 22q-29 0 -62.5 -7t-70.5 -24q-19 -9 -33.5 -5t-22.5 16.5
t-8 27.5t8 29.5t27 21.5q46 19 88.5 27t77.5 8q72 0 118.5 -22t69.5 -66.5t23 -114.5v-240q0 -31 -15 -47.5t-43 -16.5t-43.5 16.5t-15.5 47.5v48h8q-7 -35 -27.5 -60.5t-51.5 -39.5t-71 -14zM279 551q-47 0 -81 20.5t-54.5 56t-27.5 79.5q-3 20 6.5 32.5t25.5 13.5
q17 1 27.5 -8t13.5 -28q8 -45 32 -67.5t58 -22.5t58.5 22.5t31.5 67.5q3 19 14 28t27 8q17 -1 26 -13.5t6 -32.5q-6 -44 -27 -79.5t-55 -56t-81 -20.5z" />
    <glyph glyph-name="Aogonek" unicode="&#x104;" horiz-adv-x="744" 
d="M683 -195q-55 0 -86.5 28t-31.5 76q0 32 15.5 59.5t43.5 48.5l1 -14q-10 8 -17 18.5t-14 25.5l-65 151l54 -35h-422l54 35l-64 -151q-13 -29 -27 -42t-40 -13q-24 0 -38.5 11t-18 29.5t6.5 41.5l265 585q13 29 31.5 41.5t42.5 12.5q23 0 41.5 -12.5t31.5 -41.5l265 -585
q11 -25 7.5 -45.5t-20.5 -28.5q-13 -7 -25.5 -18.5t-20.5 -26.5t-8 -32q0 -25 16 -38t40 -13q7 0 14.5 1t15.5 3q18 5 28 -1.5t12.5 -19t-3.5 -24t-21 -17.5q-16 -6 -32.5 -7.5t-30.5 -1.5zM371 566l-140 -333l-26 32h334l-25 -32l-141 333h-2z" />
    <glyph glyph-name="aogonek" unicode="&#x105;" horiz-adv-x="547" 
d="M429 -195q-55 0 -86.5 28t-31.5 76q0 35 20 66.5t54 52.5l-2 -19q-8 10 -11.5 21t-3.5 26v48h8q-7 -35 -27.5 -60.5t-51.5 -39.5t-71 -14q-53 0 -94.5 20.5t-65 55.5t-23.5 79q0 54 28 85.5t91 45.5t169 14h50v-72h-49q-62 0 -99 -6t-52.5 -20.5t-15.5 -40.5
q0 -33 23 -54t64 -21q33 0 58.5 15.5t40.5 42.5t15 62v115q0 50 -22 72t-74 22q-29 0 -62.5 -7t-70.5 -24q-19 -9 -33.5 -5t-22.5 16.5t-8 27.5t8 29.5t27 21.5q46 19 88.5 27t77.5 8q72 0 118.5 -22t69.5 -66.5t23 -114.5v-240q0 -27 -10.5 -41t-29.5 -22q-23 -10 -39 -28
t-16 -42q0 -25 16 -38t40 -13q7 0 14.5 1t15.5 3q18 5 28 -1.5t12.5 -19t-3.5 -24t-21 -17.5q-16 -6 -32.5 -7.5t-30.5 -1.5z" />
    <glyph glyph-name="Cacute" unicode="&#x106;" horiz-adv-x="680" 
d="M405 -10q-110 0 -188.5 44.5t-120.5 126t-42 192.5q0 83 24 149.5t69 114t110.5 73t147.5 25.5q55 0 108 -14t93 -40q21 -13 28 -31.5t3 -36t-16.5 -29.5t-31 -13.5t-40.5 12.5q-31 20 -67 29t-73 9q-71 0 -120 -29t-74 -84t-25 -135q0 -79 25 -135t74 -85t120 -29
q38 0 75 9.5t70 29.5q22 13 39.5 11.5t29.5 -12.5t16 -27.5t-2 -34t-24 -30.5q-40 -29 -95.5 -44.5t-112.5 -15.5zM443 771q-12 -13 -26.5 -13.5t-26 8t-15 21.5t5.5 27l78 115q11 17 26.5 20.5t30.5 -2t24.5 -17t10.5 -26t-12 -28.5z" />
    <glyph glyph-name="cacute" unicode="&#x107;" horiz-adv-x="472" 
d="M291 -10q-77 0 -134 31.5t-88 89.5t-31 136q0 59 17.5 105.5t50.5 79t80 50t105 17.5q33 0 71.5 -9t72.5 -30q16 -10 21 -24t2 -28.5t-12.5 -25t-23.5 -13t-31 6.5q-22 13 -45 19.5t-44 6.5q-33 0 -58 -10.5t-42.5 -30t-26.5 -48.5t-9 -67q0 -74 35.5 -116.5t100.5 -42.5
q21 0 43.5 6t45.5 19q17 9 30.5 6t22.5 -13.5t11 -25t-3.5 -28.5t-20.5 -23q-33 -20 -70 -29t-70 -9zM331 560q-10 -14 -24 -16t-27 5t-18.5 20t2.5 29l76 149q9 19 24 24.5t31 1.5t27.5 -15t14 -26.5t-8.5 -31.5z" />
    <glyph glyph-name="Ccircumflex" unicode="&#x108;" horiz-adv-x="680" 
d="M405 -10q-110 0 -188.5 44.5t-120.5 126t-42 192.5q0 83 24 149.5t69 114t110.5 73t147.5 25.5q55 0 108 -14t93 -40q21 -13 28 -31.5t3 -36t-16.5 -29.5t-31 -13.5t-40.5 12.5q-31 20 -67 29t-73 9q-71 0 -120 -29t-74 -84t-25 -135q0 -79 25 -135t74 -85t120 -29
q38 0 75 9.5t70 29.5q22 13 39.5 11.5t29.5 -12.5t16 -27.5t-2 -34t-24 -30.5q-40 -29 -95.5 -44.5t-112.5 -15.5zM308 771q-12 -13 -27 -14t-26.5 6.5t-15 20t6.5 26.5l73 101q14 21 32.5 30.5t40.5 9.5q23 0 41 -9.5t33 -30.5l72 -101q11 -14 7.5 -26.5t-15 -20
t-26.5 -6.5t-27 14l-85 98z" />
    <glyph glyph-name="ccircumflex" unicode="&#x109;" horiz-adv-x="472" 
d="M291 -10q-77 0 -134 31.5t-88 89.5t-31 136q0 59 17.5 105.5t50.5 79t80 50t105 17.5q33 0 71.5 -9t72.5 -30q16 -10 21 -24t2 -28.5t-12.5 -25t-23.5 -13t-31 6.5q-22 13 -45 19.5t-44 6.5q-33 0 -58 -10.5t-42.5 -30t-26.5 -48.5t-9 -67q0 -74 35.5 -116.5t100.5 -42.5
q21 0 43.5 6t45.5 19q17 9 30.5 6t22.5 -13.5t11 -25t-3.5 -28.5t-20.5 -23q-33 -20 -70 -29t-70 -9zM426 597q9 -16 4 -29t-17 -19.5t-25.5 -4.5t-22.5 16l-81 126l-81 -126q-9 -14 -22.5 -16t-25.5 4.5t-17 19.5t4 29l72 132q12 23 29.5 34t40.5 11t41 -11t30 -34z" />
    <glyph glyph-name="Cdotaccent" unicode="&#x10a;" horiz-adv-x="680" 
d="M405 -10q-110 0 -188.5 44.5t-120.5 126t-42 192.5q0 83 24 149.5t69 114t110.5 73t147.5 25.5q55 0 108 -14t93 -40q21 -13 28 -31.5t3 -36t-16.5 -29.5t-31 -13.5t-40.5 12.5q-31 20 -67 29t-73 9q-71 0 -120 -29t-74 -84t-25 -135q0 -79 25 -135t74 -85t120 -29
q38 0 75 9.5t70 29.5q22 13 39.5 11.5t29.5 -12.5t16 -27.5t-2 -34t-24 -30.5q-40 -29 -95.5 -44.5t-112.5 -15.5zM392 789q-31 0 -48 16.5t-17 46.5t17 46t48 16q32 0 48.5 -16t16.5 -46t-16.5 -46.5t-48.5 -16.5z" />
    <glyph glyph-name="cdotaccent" unicode="&#x10b;" horiz-adv-x="472" 
d="M291 -10q-77 0 -134 31.5t-88 89.5t-31 136q0 59 17.5 105.5t50.5 79t80 50t105 17.5q33 0 71.5 -9t72.5 -30q16 -10 21 -24t2 -28.5t-12.5 -25t-23.5 -13t-31 6.5q-22 13 -45 19.5t-44 6.5q-33 0 -58 -10.5t-42.5 -30t-26.5 -48.5t-9 -67q0 -74 35.5 -116.5t100.5 -42.5
q21 0 43.5 6t45.5 19q17 9 30.5 6t22.5 -13.5t11 -25t-3.5 -28.5t-20.5 -23q-33 -20 -70 -29t-70 -9zM284 593q-31 0 -48 16.5t-17 46.5t17 46t48 16q32 0 49 -16t17 -46q0 -31 -17 -47t-49 -16z" />
    <glyph glyph-name="Ccaron" unicode="&#x10c;" horiz-adv-x="680" 
d="M405 -10q-110 0 -188.5 44.5t-120.5 126t-42 192.5q0 83 24 149.5t69 114t110.5 73t147.5 25.5q55 0 108 -14t93 -40q21 -13 28 -31.5t3 -36t-16.5 -29.5t-31 -13.5t-40.5 12.5q-31 20 -67 29t-73 9q-71 0 -120 -29t-74 -84t-25 -135q0 -79 25 -135t74 -85t120 -29
q38 0 75 9.5t70 29.5q22 13 39.5 11.5t29.5 -12.5t16 -27.5t-2 -34t-24 -30.5q-40 -29 -95.5 -44.5t-112.5 -15.5zM392 754q-22 0 -40.5 9.5t-32.5 29.5l-73 102q-10 14 -6.5 27t15.5 20.5t26.5 6t26.5 -15.5l84 -98l85 98q12 14 26.5 15.5t26 -6t15 -20t-6.5 -27.5
l-72 -102q-14 -20 -32.5 -29.5t-41.5 -9.5z" />
    <glyph glyph-name="ccaron" unicode="&#x10d;" horiz-adv-x="472" 
d="M291 -10q-77 0 -134 31.5t-88 89.5t-31 136q0 59 17.5 105.5t50.5 79t80 50t105 17.5q33 0 71.5 -9t72.5 -30q16 -10 21 -24t2 -28.5t-12.5 -25t-23.5 -13t-31 6.5q-22 13 -45 19.5t-44 6.5q-33 0 -58 -10.5t-42.5 -30t-26.5 -48.5t-9 -67q0 -74 35.5 -116.5t100.5 -42.5
q21 0 43.5 6t45.5 19q17 9 30.5 6t22.5 -13.5t11 -25t-3.5 -28.5t-20.5 -23q-33 -20 -70 -29t-70 -9zM284 536q-23 0 -40.5 12.5t-29.5 34.5l-72 131q-9 16 -4 29t17 19.5t25.5 4.5t22.5 -16l81 -126l81 126q9 14 22.5 16t25.5 -4.5t17 -19.5t-4 -29l-71 -131
q-12 -22 -30 -34.5t-41 -12.5z" />
    <glyph glyph-name="Dcaron" unicode="&#x10e;" horiz-adv-x="762" 
d="M145 0q-33 0 -50.5 17.5t-17.5 50.5v569q0 33 17.5 50.5t50.5 17.5h194q177 0 273.5 -91t96.5 -261q0 -85 -24.5 -150.5t-72 -110.5t-116 -68.5t-157.5 -23.5h-194zM205 106h126q62 0 107.5 15.5t76 46t45.5 77t15 108.5q0 124 -61 185t-183 61h-126v-493zM379 754
q-22 0 -40.5 9.5t-32.5 29.5l-73 102q-10 14 -6.5 27t15.5 20.5t26.5 6t26.5 -15.5l84 -98l85 98q12 14 26.5 15.5t26 -6t15 -20t-6.5 -27.5l-72 -102q-14 -20 -32.5 -29.5t-41.5 -9.5z" />
    <glyph glyph-name="dcaron" unicode="&#x10f;" 
d="M253 -10q-64 0 -112.5 31t-75.5 88.5t-27 135.5q0 79 27 135.5t75.5 87.5t112.5 31q61 0 106.5 -30t61.5 -79h-11v260q0 31 16 47t46 16t46.5 -16t16.5 -47v-594q0 -31 -16 -47.5t-46 -16.5t-46 16.5t-16 47.5v78l11 -30q-15 -52 -61 -83t-108 -31zM288 85q37 0 65 18
t43.5 53.5t15.5 88.5q0 80 -34 119.5t-90 39.5q-37 0 -65 -17.5t-43.5 -53t-15.5 -88.5q0 -79 34 -119.5t90 -40.5zM605 506q-13 0 -21 8t-8 23v134q0 42 42 42q21 0 30.5 -11.5t6.5 -32.5l-18 -134q-5 -29 -32 -29z" />
    <glyph glyph-name="Dcroat" unicode="&#x110;" horiz-adv-x="762" 
d="M145 0q-33 0 -50.5 17.5t-17.5 50.5v569q0 33 17.5 50.5t50.5 17.5h194q177 0 273.5 -91t96.5 -261q0 -85 -24.5 -150.5t-72 -110.5t-116 -68.5t-157.5 -23.5h-194zM205 106h126q62 0 107.5 15.5t76 46t45.5 77t15 108.5q0 124 -61 185t-183 61h-126v-493zM32 310
q-24 0 -36.5 12.5t-12.5 34.5q0 23 12.5 35t36.5 12h323q23 0 36 -11.5t13 -35.5q0 -22 -13 -34.5t-36 -12.5h-323z" />
    <glyph glyph-name="dcroat" unicode="&#x111;" 
d="M254 -10q-64 0 -112.5 31t-75.5 88.5t-27 135.5q0 79 27 135.5t75.5 87.5t112.5 31q61 0 106.5 -30t61.5 -79h-11v154h-147q-22 0 -34.5 11.5t-12.5 32.5t12.5 32.5t34.5 11.5h201l-54 -55v83q0 23 16 38t46 15t46.5 -15t16.5 -38v-83l-55 55h101q23 0 34.5 -11.5
t11.5 -32.5t-11.5 -32.5t-34.5 -11.5h-46v-488q0 -31 -16 -47.5t-46 -16.5t-46 16.5t-16 47.5v76l10 -30q-15 -50 -60.5 -81t-107.5 -31zM289 85q37 0 65 18t43.5 53.5t15.5 88.5q0 80 -34 119.5t-90 39.5q-37 0 -65 -17.5t-43.5 -53t-15.5 -88.5q0 -79 34 -119.5t90 -40.5z
" />
    <glyph glyph-name="Emacron" unicode="&#x112;" horiz-adv-x="597" 
d="M145 0q-33 0 -50.5 17.5t-17.5 50.5v569q0 33 17.5 50.5t50.5 17.5h357q25 0 38.5 -13t13.5 -37q0 -25 -13.5 -38.5t-38.5 -13.5h-302v-194h280q26 0 39 -13t13 -38t-13 -38t-39 -13h-280v-205h302q25 0 38.5 -13t13.5 -38t-13.5 -38t-38.5 -13h-357zM190 806
q-39 0 -39 37q0 18 10 27.5t29 9.5h277q39 0 39 -37q0 -17 -10 -27t-29 -10h-277z" />
    <glyph glyph-name="emacron" unicode="&#x113;" horiz-adv-x="542" 
d="M306 -10q-83 0 -143 31t-92.5 88t-32.5 135q0 76 31.5 133t87 89.5t126.5 32.5q52 0 93.5 -17t71 -49t45 -77.5t15.5 -102.5q0 -18 -12.5 -27.5t-35.5 -9.5h-321v72h281l-16 -15q0 46 -13.5 77t-39 47.5t-63.5 16.5q-42 0 -71.5 -19.5t-45 -55t-15.5 -84.5v-7
q0 -82 38.5 -122.5t113.5 -40.5q26 0 58.5 6.5t61.5 22.5q21 12 37 10.5t25.5 -11.5t11.5 -24.5t-5.5 -29.5t-25.5 -26q-35 -22 -80.5 -32.5t-84.5 -10.5zM161 616q-39 0 -39 37q0 18 10 27.5t29 9.5h247q39 0 39 -37q0 -17 -10 -27t-29 -10h-247z" />
    <glyph glyph-name="Ebreve" unicode="&#x114;" horiz-adv-x="597" 
d="M145 0q-33 0 -50.5 17.5t-17.5 50.5v569q0 33 17.5 50.5t50.5 17.5h357q25 0 38.5 -13t13.5 -37q0 -25 -13.5 -38.5t-38.5 -13.5h-302v-194h280q26 0 39 -13t13 -38t-13 -38t-39 -13h-280v-205h302q25 0 38.5 -13t13.5 -38t-13.5 -38t-38.5 -13h-357zM328 760
q-65 0 -112.5 34.5t-64.5 98.5q-5 20 4.5 33t23.5 14q14 2 23 -2.5t14 -11.5t7 -15q10 -41 40.5 -58.5t64.5 -17.5q35 0 65 17.5t40 58.5q2 8 7 15t14 11.5t23 2.5q14 -1 23.5 -14t4.5 -33q-16 -64 -64 -98.5t-113 -34.5z" />
    <glyph glyph-name="ebreve" unicode="&#x115;" horiz-adv-x="542" 
d="M306 -10q-83 0 -143 31t-92.5 88t-32.5 135q0 76 31.5 133t87 89.5t126.5 32.5q52 0 93.5 -17t71 -49t45 -77.5t15.5 -102.5q0 -18 -12.5 -27.5t-35.5 -9.5h-321v72h281l-16 -15q0 46 -13.5 77t-39 47.5t-63.5 16.5q-42 0 -71.5 -19.5t-45 -55t-15.5 -84.5v-7
q0 -82 38.5 -122.5t113.5 -40.5q26 0 58.5 6.5t61.5 22.5q21 12 37 10.5t25.5 -11.5t11.5 -24.5t-5.5 -29.5t-25.5 -26q-35 -22 -80.5 -32.5t-84.5 -10.5zM284 551q-47 0 -81 20.5t-54.5 56t-27.5 79.5q-3 20 6.5 32.5t25.5 13.5q17 1 27.5 -8t13.5 -28q8 -45 32 -67.5
t58 -22.5t58.5 22.5t31.5 67.5q3 19 14 28t27 8q17 -1 26 -13.5t6 -32.5q-6 -44 -27 -79.5t-55 -56t-81 -20.5z" />
    <glyph glyph-name="Edotaccent" unicode="&#x116;" horiz-adv-x="597" 
d="M145 0q-33 0 -50.5 17.5t-17.5 50.5v569q0 33 17.5 50.5t50.5 17.5h357q25 0 38.5 -13t13.5 -37q0 -25 -13.5 -38.5t-38.5 -13.5h-302v-194h280q26 0 39 -13t13 -38t-13 -38t-39 -13h-280v-205h302q25 0 38.5 -13t13.5 -38t-13.5 -38t-38.5 -13h-357zM328 789
q-31 0 -48 16.5t-17 46.5t17 46t48 16q32 0 48.5 -16t16.5 -46t-16.5 -46.5t-48.5 -16.5z" />
    <glyph glyph-name="edotaccent" unicode="&#x117;" horiz-adv-x="542" 
d="M306 -10q-83 0 -143 31t-92.5 88t-32.5 135q0 76 31.5 133t87 89.5t126.5 32.5q52 0 93.5 -17t71 -49t45 -77.5t15.5 -102.5q0 -18 -12.5 -27.5t-35.5 -9.5h-321v72h281l-16 -15q0 46 -13.5 77t-39 47.5t-63.5 16.5q-42 0 -71.5 -19.5t-45 -55t-15.5 -84.5v-7
q0 -82 38.5 -122.5t113.5 -40.5q26 0 58.5 6.5t61.5 22.5q21 12 37 10.5t25.5 -11.5t11.5 -24.5t-5.5 -29.5t-25.5 -26q-35 -22 -80.5 -32.5t-84.5 -10.5zM284 593q-31 0 -48 16.5t-17 46.5t17 46t48 16q32 0 49 -16t17 -46q0 -31 -17 -47t-49 -16z" />
    <glyph glyph-name="Eogonek" unicode="&#x118;" horiz-adv-x="597" 
d="M145 0q-33 0 -50.5 17.5t-17.5 50.5v569q0 33 17.5 50.5t50.5 17.5h357q25 0 38.5 -13t13.5 -37q0 -25 -13.5 -38.5t-38.5 -13.5h-302v-194h280q26 0 39 -13t13 -38t-13 -38t-39 -13h-280v-205h302q25 0 38.5 -13t13.5 -38t-13.5 -38t-38.5 -13h-357zM477 -195
q-55 0 -86.5 28t-31.5 76q0 42 28 78t74 55l37 -42q-16 -7 -30 -18.5t-22 -26.5t-8 -32q0 -25 16 -38t40 -13q7 0 14.5 1t15.5 3q18 5 28 -1.5t12.5 -19t-3.5 -24t-21 -17.5q-16 -6 -32.5 -7.5t-30.5 -1.5z" />
    <glyph glyph-name="eogonek" unicode="&#x119;" horiz-adv-x="542" 
d="M306 -10q-83 0 -143 31t-92.5 88t-32.5 135q0 76 31.5 133t87 89.5t126.5 32.5q52 0 93.5 -17t71 -49t45 -77.5t15.5 -102.5q0 -18 -12.5 -27.5t-35.5 -9.5h-321v72h281l-16 -15q0 46 -13.5 77t-39 47.5t-63.5 16.5q-42 0 -71.5 -19.5t-45 -55t-15.5 -84.5v-7
q0 -82 38.5 -122.5t113.5 -40.5q26 0 58.5 6.5t61.5 22.5q21 12 37 10.5t25.5 -11.5t11.5 -24.5t-5.5 -29.5t-25.5 -26q-35 -22 -80.5 -32.5t-84.5 -10.5zM350 -195q-55 0 -86.5 28t-31.5 76q0 42 28 78t74 55l37 -42q-16 -7 -30 -18.5t-22 -26.5t-8 -32q0 -25 16 -38
t40 -13q7 0 14.5 1t15.5 3q18 5 28 -1.5t12.5 -19t-3.5 -24t-21 -17.5q-16 -6 -32.5 -7.5t-30.5 -1.5z" />
    <glyph glyph-name="Ecaron" unicode="&#x11a;" horiz-adv-x="597" 
d="M145 0q-33 0 -50.5 17.5t-17.5 50.5v569q0 33 17.5 50.5t50.5 17.5h357q25 0 38.5 -13t13.5 -37q0 -25 -13.5 -38.5t-38.5 -13.5h-302v-194h280q26 0 39 -13t13 -38t-13 -38t-39 -13h-280v-205h302q25 0 38.5 -13t13.5 -38t-13.5 -38t-38.5 -13h-357zM328 754
q-22 0 -40.5 9.5t-32.5 29.5l-73 102q-10 14 -6.5 27t15.5 20.5t26.5 6t26.5 -15.5l84 -98l85 98q12 14 26.5 15.5t26 -6t15 -20t-6.5 -27.5l-72 -102q-14 -20 -32.5 -29.5t-41.5 -9.5z" />
    <glyph glyph-name="ecaron" unicode="&#x11b;" horiz-adv-x="542" 
d="M306 -10q-83 0 -143 31t-92.5 88t-32.5 135q0 76 31.5 133t87 89.5t126.5 32.5q52 0 93.5 -17t71 -49t45 -77.5t15.5 -102.5q0 -18 -12.5 -27.5t-35.5 -9.5h-321v72h281l-16 -15q0 46 -13.5 77t-39 47.5t-63.5 16.5q-42 0 -71.5 -19.5t-45 -55t-15.5 -84.5v-7
q0 -82 38.5 -122.5t113.5 -40.5q26 0 58.5 6.5t61.5 22.5q21 12 37 10.5t25.5 -11.5t11.5 -24.5t-5.5 -29.5t-25.5 -26q-35 -22 -80.5 -32.5t-84.5 -10.5zM284 536q-23 0 -40.5 12.5t-29.5 34.5l-72 131q-9 16 -4 29t17 19.5t25.5 4.5t22.5 -16l81 -126l81 126q9 14 22.5 16
t25.5 -4.5t17 -19.5t-4 -29l-71 -131q-12 -22 -30 -34.5t-41 -12.5z" />
    <glyph glyph-name="Gcircumflex" unicode="&#x11c;" horiz-adv-x="736" 
d="M416 -10q-117 0 -197.5 44t-122.5 125t-42 192q0 84 24.5 151t71 114.5t113.5 73t152 25.5q56 0 112.5 -13.5t106.5 -45.5q17 -11 22.5 -27t1.5 -32.5t-15 -28.5t-27.5 -15t-36.5 8q-38 22 -77 32t-87 10q-74 0 -125 -29.5t-76.5 -85.5t-25.5 -137q0 -123 59 -187
t175 -64q40 0 81 8t80 22l-25 -57v213h-110q-25 0 -38.5 13t-13.5 35q0 23 13.5 35t38.5 12h165q25 0 38.5 -13.5t13.5 -38.5v-243q0 -22 -8.5 -37t-27.5 -22q-44 -16 -101 -26.5t-112 -10.5zM317 771q-12 -13 -27 -14t-26.5 6.5t-15 20t6.5 26.5l73 101q14 21 32.5 30.5
t40.5 9.5q23 0 41 -9.5t33 -30.5l72 -101q11 -14 7.5 -26.5t-15 -20t-26.5 -6.5t-27 14l-85 98z" />
    <glyph glyph-name="gcircumflex" unicode="&#x11d;" horiz-adv-x="604" 
d="M293 -190q-54 0 -104.5 10t-91.5 31q-19 10 -25.5 24t-4 28.5t12 25.5t23.5 15t29 -4q44 -22 83.5 -28.5t67.5 -6.5q67 0 100.5 32.5t33.5 96.5v90h9q-15 -51 -62.5 -81.5t-107.5 -30.5q-66 0 -115 30.5t-76 85.5t-27 128q0 55 15.5 99.5t44 76.5t69 49.5t89.5 17.5
q62 0 108.5 -30.5t60.5 -80.5l-10 -25v71q0 31 16.5 47t45.5 16q30 0 46 -16t16 -47v-385q0 -119 -63 -179t-183 -60zM290 107q39 0 67 18t43.5 51.5t15.5 79.5q0 69 -34 108.5t-92 39.5q-39 0 -67 -18t-43.5 -51t-15.5 -79q0 -69 34 -109t92 -40zM445 597q9 -16 4 -29
t-17 -19.5t-25.5 -4.5t-22.5 16l-81 126l-81 -126q-9 -14 -22.5 -16t-25.5 4.5t-17 19.5t4 29l72 132q12 23 29.5 34t40.5 11t41 -11t30 -34z" />
    <glyph glyph-name="Gbreve" unicode="&#x11e;" horiz-adv-x="736" 
d="M416 -10q-117 0 -197.5 44t-122.5 125t-42 192q0 84 24.5 151t71 114.5t113.5 73t152 25.5q56 0 112.5 -13.5t106.5 -45.5q17 -11 22.5 -27t1.5 -32.5t-15 -28.5t-27.5 -15t-36.5 8q-38 22 -77 32t-87 10q-74 0 -125 -29.5t-76.5 -85.5t-25.5 -137q0 -123 59 -187
t175 -64q40 0 81 8t80 22l-25 -57v213h-110q-25 0 -38.5 13t-13.5 35q0 23 13.5 35t38.5 12h165q25 0 38.5 -13.5t13.5 -38.5v-243q0 -22 -8.5 -37t-27.5 -22q-44 -16 -101 -26.5t-112 -10.5zM401 760q-65 0 -112.5 34.5t-64.5 98.5q-5 20 4.5 33t23.5 14q14 2 23 -2.5
t14 -11.5t7 -15q10 -41 40.5 -58.5t64.5 -17.5q35 0 65 17.5t40 58.5q2 8 7 15t14 11.5t23 2.5q14 -1 23.5 -14t4.5 -33q-16 -64 -64 -98.5t-113 -34.5z" />
    <glyph glyph-name="gbreve" unicode="&#x11f;" horiz-adv-x="604" 
d="M293 -190q-54 0 -104.5 10t-91.5 31q-19 10 -25.5 24t-4 28.5t12 25.5t23.5 15t29 -4q44 -22 83.5 -28.5t67.5 -6.5q67 0 100.5 32.5t33.5 96.5v90h9q-15 -51 -62.5 -81.5t-107.5 -30.5q-66 0 -115 30.5t-76 85.5t-27 128q0 55 15.5 99.5t44 76.5t69 49.5t89.5 17.5
q62 0 108.5 -30.5t60.5 -80.5l-10 -25v71q0 31 16.5 47t45.5 16q30 0 46 -16t16 -47v-385q0 -119 -63 -179t-183 -60zM290 107q39 0 67 18t43.5 51.5t15.5 79.5q0 69 -34 108.5t-92 39.5q-39 0 -67 -18t-43.5 -51t-15.5 -79q0 -69 34 -109t92 -40zM303 551q-47 0 -81 20.5
t-54.5 56t-27.5 79.5q-3 20 6.5 32.5t25.5 13.5q17 1 27.5 -8t13.5 -28q8 -45 32 -67.5t58 -22.5t58.5 22.5t31.5 67.5q3 19 14 28t27 8q17 -1 26 -13.5t6 -32.5q-6 -44 -27 -79.5t-55 -56t-81 -20.5z" />
    <glyph glyph-name="Gdotaccent" unicode="&#x120;" horiz-adv-x="736" 
d="M416 -10q-117 0 -197.5 44t-122.5 125t-42 192q0 84 24.5 151t71 114.5t113.5 73t152 25.5q56 0 112.5 -13.5t106.5 -45.5q17 -11 22.5 -27t1.5 -32.5t-15 -28.5t-27.5 -15t-36.5 8q-38 22 -77 32t-87 10q-74 0 -125 -29.5t-76.5 -85.5t-25.5 -137q0 -123 59 -187
t175 -64q40 0 81 8t80 22l-25 -57v213h-110q-25 0 -38.5 13t-13.5 35q0 23 13.5 35t38.5 12h165q25 0 38.5 -13.5t13.5 -38.5v-243q0 -22 -8.5 -37t-27.5 -22q-44 -16 -101 -26.5t-112 -10.5zM401 789q-31 0 -48 16.5t-17 46.5t17 46t48 16q32 0 48.5 -16t16.5 -46
t-16.5 -46.5t-48.5 -16.5z" />
    <glyph glyph-name="gdotaccent" unicode="&#x121;" horiz-adv-x="604" 
d="M293 -190q-54 0 -104.5 10t-91.5 31q-19 10 -25.5 24t-4 28.5t12 25.5t23.5 15t29 -4q44 -22 83.5 -28.5t67.5 -6.5q67 0 100.5 32.5t33.5 96.5v90h9q-15 -51 -62.5 -81.5t-107.5 -30.5q-66 0 -115 30.5t-76 85.5t-27 128q0 55 15.5 99.5t44 76.5t69 49.5t89.5 17.5
q62 0 108.5 -30.5t60.5 -80.5l-10 -25v71q0 31 16.5 47t45.5 16q30 0 46 -16t16 -47v-385q0 -119 -63 -179t-183 -60zM290 107q39 0 67 18t43.5 51.5t15.5 79.5q0 69 -34 108.5t-92 39.5q-39 0 -67 -18t-43.5 -51t-15.5 -79q0 -69 34 -109t92 -40zM303 593q-31 0 -48 16.5
t-17 46.5t17 46t48 16q32 0 49 -16t17 -46q0 -31 -17 -47t-49 -16z" />
    <glyph glyph-name="uni0122" unicode="&#x122;" horiz-adv-x="736" 
d="M416 -10q-117 0 -197.5 44t-122.5 125t-42 192q0 84 24.5 151t71 114.5t113.5 73t152 25.5q56 0 112.5 -13.5t106.5 -45.5q17 -11 22.5 -27t1.5 -32.5t-15 -28.5t-27.5 -15t-36.5 8q-38 22 -77 32t-87 10q-74 0 -125 -29.5t-76.5 -85.5t-25.5 -137q0 -123 59 -187
t175 -64q40 0 81 8t80 22l-25 -57v213h-110q-25 0 -38.5 13t-13.5 35q0 23 13.5 35t38.5 12h165q25 0 38.5 -13.5t13.5 -38.5v-243q0 -22 -8.5 -37t-27.5 -22q-44 -16 -101 -26.5t-112 -10.5zM434 -260q-10 -12 -22.5 -14t-22 4.5t-11 18t8.5 26.5q10 14 15 31.5t5 30.5
l3 -21q-34 0 -52 15.5t-18 43.5t17.5 43t49.5 15q33 0 50.5 -17t17.5 -52q0 -21 -4.5 -43t-13.5 -43t-23 -38z" />
    <glyph glyph-name="uni0123" unicode="&#x123;" horiz-adv-x="604" 
d="M293 -190q-54 0 -104.5 10t-91.5 31q-19 10 -25.5 24t-4 28.5t12 25.5t23.5 15t29 -4q44 -22 83.5 -28.5t67.5 -6.5q67 0 100.5 32.5t33.5 96.5v90h9q-15 -51 -62.5 -81.5t-107.5 -30.5q-66 0 -115 30.5t-76 85.5t-27 128q0 55 15.5 99.5t44 76.5t69 49.5t89.5 17.5
q62 0 108.5 -30.5t60.5 -80.5l-10 -25v71q0 31 16.5 47t45.5 16q30 0 46 -16t16 -47v-385q0 -119 -63 -179t-183 -60zM290 107q39 0 67 18t43.5 51.5t15.5 79.5q0 69 -34 108.5t-92 39.5q-39 0 -67 -18t-43.5 -51t-15.5 -79q0 -69 34 -109t92 -40zM304 558q-33 0 -50.5 17.5
t-17.5 51.5q0 21 4.5 43t13.5 43t23 38q10 12 22.5 14t22 -4.5t11.5 -18t-9 -26.5q-10 -14 -15 -31t-5 -31l-3 21q34 0 52 -15t18 -44q0 -28 -17.5 -43t-49.5 -15z" />
    <glyph glyph-name="Hcircumflex" unicode="&#x124;" horiz-adv-x="773" 
d="M141 -8q-31 0 -47.5 17.5t-16.5 48.5v589q0 32 16.5 49t47.5 17t47.5 -17t16.5 -49v-236h363v236q0 32 16.5 49t47.5 17t47.5 -17t16.5 -49v-589q0 -31 -16.5 -48.5t-47.5 -17.5t-47.5 17.5t-16.5 48.5v246h-363v-246q0 -31 -16 -48.5t-48 -17.5zM302 771
q-12 -13 -27 -14t-26.5 6.5t-15 20t6.5 26.5l73 101q14 21 32.5 30.5t40.5 9.5q23 0 41 -9.5t33 -30.5l72 -101q11 -14 7.5 -26.5t-15 -20t-26.5 -6.5t-27 14l-85 98z" />
    <glyph glyph-name="hcircumflex" unicode="&#x125;" horiz-adv-x="585" 
d="M127 -8q-30 0 -46 16.5t-16 47.5v594q0 31 16 47t46 16t46.5 -16t16.5 -47v-259h-14q22 53 68.5 80.5t105.5 27.5t97 -22t57 -66.5t19 -112.5v-242q0 -31 -16 -47.5t-46 -16.5t-46.5 16.5t-16.5 47.5v236q0 57 -21.5 83t-66.5 26q-55 0 -87.5 -34.5t-32.5 -91.5v-219
q0 -64 -63 -64zM210 771q-12 -13 -27 -14t-26.5 6.5t-15 20t6.5 26.5l73 101q14 21 32.5 30.5t40.5 9.5q23 0 41 -9.5t33 -30.5l72 -101q11 -14 7.5 -26.5t-15 -20t-26.5 -6.5t-27 14l-85 98z" />
    <glyph glyph-name="Hbar" unicode="&#x126;" horiz-adv-x="817" 
d="M164 -8q-31 0 -48 17.5t-17 48.5v468l38 -15h-82q-49 0 -49 47q0 23 13 35t36 12h67l-23 -38v80q0 32 17 49t48 17t47.5 -17t16.5 -49v-80l-18 38h398l-18 -38v80q0 32 17 49t48 17t47.5 -17t16.5 -49v-80l-28 38h72q49 0 49 -47q0 -22 -13 -34.5t-36 -12.5h-87l43 18
v-471q0 -31 -16.5 -48.5t-47.5 -17.5t-48 17.5t-17 48.5v236h-362v-236q0 -31 -16 -48.5t-48 -17.5zM228 401h362v110h-362v-110z" />
    <glyph glyph-name="hbar" unicode="&#x127;" horiz-adv-x="585" 
d="M127 -8q-30 0 -46 16.5t-16 47.5v488h-44q-23 0 -35 11.5t-12 32.5q0 44 47 44h72l-28 -48v71q0 27 16 42.5t46 15.5t46.5 -15.5t16.5 -42.5v-71l-28 48h173q23 0 34.5 -11.5t11.5 -32.5q0 -44 -46 -44h-145v-153h-14q22 53 68.5 80.5t105.5 27.5t97 -22t57 -66.5
t19 -112.5v-242q0 -31 -16 -47.5t-46 -16.5t-46.5 16.5t-16.5 47.5v236q0 57 -21.5 83t-66.5 26q-55 0 -87.5 -34.5t-32.5 -91.5v-219q0 -64 -63 -64z" />
    <glyph glyph-name="Itilde" unicode="&#x128;" horiz-adv-x="282" 
d="M141 -8q-31 0 -47.5 17.5t-16.5 48.5v589q0 32 16.5 49t47.5 17t47.5 -17t16.5 -49v-589q0 -31 -16 -48.5t-48 -17.5zM-48 769q-16 1 -25 11t-5 27q12 56 46.5 86.5t83.5 30.5q28 0 52 -10t46 -23t42.5 -23t40.5 -10q26 0 41.5 13.5t20.5 33.5q4 14 13 20.5t22 5.5
q16 -1 25 -11t5 -27q-12 -56 -45.5 -86.5t-83.5 -30.5q-28 0 -52.5 10t-46.5 23t-42.5 23t-40.5 10q-25 0 -41 -13.5t-21 -33.5q-4 -13 -12.5 -20t-22.5 -6z" />
    <glyph glyph-name="itilde" unicode="&#x129;" horiz-adv-x="255" 
d="M127 -7q-30 0 -46 18t-16 50v367q0 33 16 50.5t46 17.5t46.5 -17.5t16.5 -50.5v-367q0 -32 -16 -50t-47 -18zM-36 581q-15 1 -23 10t-4 28q4 21 12.5 41.5t22.5 37.5t34 27.5t47 10.5q25 0 44 -10t35 -23t32 -23t35 -10q21 0 36.5 14.5t19.5 36.5q2 11 10.5 17t24.5 5
q15 -1 23 -10t4 -28q-5 -27 -19 -54t-37.5 -45t-59.5 -18q-25 0 -44 10t-35.5 23t-32.5 23t-34 10q-21 0 -36 -14t-20 -37q-2 -11 -10.5 -17t-24.5 -5z" />
    <glyph glyph-name="Imacron" unicode="&#x12a;" horiz-adv-x="282" 
d="M141 -8q-31 0 -47.5 17.5t-16.5 48.5v589q0 32 16.5 49t47.5 17t47.5 -17t16.5 -49v-589q0 -31 -16 -48.5t-48 -17.5zM3 806q-39 0 -39 37q0 18 10 27.5t29 9.5h277q39 0 39 -37q0 -17 -10 -27t-29 -10h-277z" />
    <glyph glyph-name="imacron" unicode="&#x12b;" horiz-adv-x="255" 
d="M127 -7q-30 0 -46 18t-16 50v367q0 33 16 50.5t46 17.5t46.5 -17.5t16.5 -50.5v-367q0 -32 -16 -50t-47 -18zM4 616q-39 0 -39 37q0 18 10 27.5t29 9.5h247q39 0 39 -37q0 -17 -10 -27t-29 -10h-247z" />
    <glyph glyph-name="Ibreve" unicode="&#x12c;" horiz-adv-x="282" 
d="M141 -8q-31 0 -47.5 17.5t-16.5 48.5v589q0 32 16.5 49t47.5 17t47.5 -17t16.5 -49v-589q0 -31 -16 -48.5t-48 -17.5zM141 760q-65 0 -112.5 34.5t-64.5 98.5q-5 20 4.5 33t23.5 14q14 2 23 -2.5t14 -11.5t7 -15q10 -41 40.5 -58.5t64.5 -17.5q35 0 65 17.5t40 58.5
q2 8 7 15t14 11.5t23 2.5q14 -1 23.5 -14t4.5 -33q-16 -64 -64 -98.5t-113 -34.5z" />
    <glyph glyph-name="ibreve" unicode="&#x12d;" horiz-adv-x="255" 
d="M127 -7q-30 0 -46 18t-16 50v367q0 33 16 50.5t46 17.5t46.5 -17.5t16.5 -50.5v-367q0 -32 -16 -50t-47 -18zM127 551q-47 0 -81 20.5t-54.5 56t-27.5 79.5q-3 20 6.5 32.5t25.5 13.5q17 1 27.5 -8t13.5 -28q8 -45 32 -67.5t58 -22.5t58.5 22.5t31.5 67.5q3 19 14 28
t27 8q17 -1 26 -13.5t6 -32.5q-6 -44 -27 -79.5t-55 -56t-81 -20.5z" />
    <glyph glyph-name="Iogonek" unicode="&#x12e;" horiz-adv-x="282" 
d="M157 -195q-55 0 -86.5 28t-31.5 76q0 30 14.5 57t40.5 48v-5q-8 8 -12.5 20.5t-4.5 28.5v589q0 32 16.5 49t47.5 17t47.5 -17t16.5 -49v-589q0 -22 -8.5 -37.5t-21.5 -21.5q-23 -10 -40 -30.5t-17 -45.5t16 -38t40 -13q7 0 14.5 1t15.5 3q18 5 28 -1.5t12.5 -19t-3.5 -24
t-21 -17.5q-16 -6 -32.5 -7.5t-30.5 -1.5z" />
    <glyph glyph-name="iogonek" unicode="&#x12f;" horiz-adv-x="255" 
d="M143 -195q-55 0 -86.5 28t-31.5 76q0 33 17 62t47 50l-3 -15q-10 9 -15.5 23t-5.5 32v367q0 33 16 50.5t46 17.5t46.5 -17.5t16.5 -50.5v-367q0 -23 -9 -39.5t-25 -25.5q-20 -12 -36 -30.5t-16 -42.5q0 -25 16 -38t40 -13q7 0 14.5 1t15.5 3q18 5 28 -1.5t12.5 -19
t-3.5 -24t-21 -17.5q-16 -6 -32.5 -7.5t-30.5 -1.5zM127 589q-35 0 -54.5 17.5t-19.5 48.5q0 32 19.5 49t54.5 17q36 0 55 -17t19 -49q0 -31 -19 -48.5t-55 -17.5z" />
    <glyph glyph-name="Idotaccent" unicode="&#x130;" horiz-adv-x="282" 
d="M141 -8q-31 0 -47.5 17.5t-16.5 48.5v589q0 32 16.5 49t47.5 17t47.5 -17t16.5 -49v-589q0 -31 -16 -48.5t-48 -17.5zM141 789q-31 0 -48 16.5t-17 46.5t17 46t48 16q32 0 48.5 -16t16.5 -46t-16.5 -46.5t-48.5 -16.5z" />
    <glyph glyph-name="dotlessi" unicode="&#x131;" horiz-adv-x="255" 
d="M127 -7q-30 0 -46 18t-16 50v367q0 33 16 50.5t46 17.5t46.5 -17.5t16.5 -50.5v-367q0 -32 -16 -50t-47 -18z" />
    <glyph glyph-name="IJ" unicode="&#x132;" horiz-adv-x="636" 
d="M141 -8q-31 0 -47.5 17.5t-16.5 48.5v589q0 32 16.5 49t47.5 17t47.5 -17t16.5 -49v-589q0 -31 -16 -48.5t-48 -17.5zM328 -7q-28 -1 -44 15t-16 41q0 19 11.5 33.5t33.5 15.5l30 2q44 3 66.5 27.5t22.5 70.5v450q0 32 16.5 48.5t47.5 16.5t47.5 -16.5t16.5 -48.5v-449
q0 -63 -22.5 -107t-66.5 -68.5t-109 -28.5z" />
    <glyph glyph-name="Jcircumflex" unicode="&#x134;" horiz-adv-x="354" 
d="M46 -7q-28 -1 -44 15t-16 41q0 19 11.5 33.5t33.5 15.5l30 2q44 3 66.5 27.5t22.5 70.5v450q0 32 16.5 48.5t47.5 16.5t47.5 -16.5t16.5 -48.5v-449q0 -63 -22.5 -107t-66.5 -68.5t-109 -28.5zM129 771q-12 -13 -27 -14t-26.5 6.5t-15 20t6.5 26.5l73 101
q14 21 32.5 30.5t40.5 9.5q23 0 41 -9.5t33 -30.5l72 -101q11 -14 7.5 -26.5t-15 -20t-26.5 -6.5t-27 14l-85 98z" />
    <glyph glyph-name="jcircumflex" unicode="&#x135;" horiz-adv-x="259" 
d="M5 -189q-22 -2 -36 6.5t-19.5 21.5t-3.5 27t11.5 24.5t25.5 11.5q45 4 65.5 25.5t20.5 65.5v441q0 31 16.5 47t46.5 16t46 -16t16 -47v-430q0 -64 -20.5 -105t-62 -62t-106.5 -26zM273 597q9 -16 4 -29t-17 -19.5t-25.5 -4.5t-22.5 16l-81 126l-81 -126q-9 -14 -22.5 -16
t-25.5 4.5t-17 19.5t4 29l72 132q12 23 29.5 34t40.5 11t41 -11t30 -34z" />
    <glyph glyph-name="uni0136" unicode="&#x136;" horiz-adv-x="665" 
d="M141 -8q-31 0 -47.5 17.5t-16.5 48.5v590q0 32 16.5 48.5t47.5 16.5t47.5 -16.5t16.5 -48.5v-255h2l287 288q16 16 32 24t36 8q29 0 41.5 -15t10 -35t-19.5 -37l-292 -289l1 58l305 -310q21 -20 22 -42t-13.5 -36.5t-42.5 -14.5q-24 0 -38.5 10t-33.5 29l-295 295h-2
v-268q0 -31 -16 -48.5t-48 -17.5zM358 -260q-10 -12 -22.5 -14t-22 4.5t-11 18t8.5 26.5q10 14 15 31.5t5 30.5l3 -21q-34 0 -52 15.5t-18 43.5t17.5 43t49.5 15q33 0 50.5 -17t17.5 -52q0 -21 -4.5 -43t-13.5 -43t-23 -38z" />
    <glyph glyph-name="uni0137" unicode="&#x137;" horiz-adv-x="536" 
d="M127 -8q-30 0 -46 16.5t-16 47.5v594q0 31 16 47t46 16t46.5 -16t16.5 -47v-369h2l165 174q20 20 35 31t41 11t39.5 -13.5t13.5 -32.5t-18 -38l-174 -184v52l191 -206q18 -19 16.5 -38.5t-16.5 -32t-38 -12.5q-28 0 -44.5 11t-36.5 33l-174 182h-2v-162q0 -64 -63 -64z
M294 -260q-10 -12 -22.5 -14t-22 4.5t-11 18t8.5 26.5q10 14 15 31.5t5 30.5l3 -21q-34 0 -52 15.5t-18 43.5t17.5 43t49.5 15q33 0 50.5 -17t17.5 -52q0 -21 -4.5 -43t-13.5 -43t-23 -38z" />
    <glyph glyph-name="kgreenlandic" unicode="&#x138;" horiz-adv-x="536" 
d="M127 -8q-30 0 -46 16.5t-16 47.5v378q0 31 16 47t46 16t46.5 -16t16.5 -47v-153h2l165 174q20 20 35 31t41 11t39.5 -13.5t13.5 -32.5t-18 -38l-174 -184v52l191 -206q18 -19 16.5 -38.5t-16.5 -32t-38 -12.5q-28 0 -44.5 11t-36.5 33l-174 182h-2v-162q0 -31 -16 -47.5
t-47 -16.5z" />
    <glyph glyph-name="Lacute" unicode="&#x139;" horiz-adv-x="562" 
d="M142 0q-31 0 -48 17.5t-17 48.5v577q0 32 16.5 48.5t47.5 16.5t47.5 -16.5t16.5 -48.5v-534h290q27 0 41.5 -14t14.5 -40t-14.5 -40.5t-41.5 -14.5h-353zM192 771q-12 -13 -26.5 -13.5t-26 8t-15 21.5t5.5 27l78 115q11 17 26.5 20.5t30.5 -2t24.5 -17t10.5 -26
t-12 -28.5z" />
    <glyph glyph-name="lacute" unicode="&#x13a;" horiz-adv-x="319" 
d="M232 -10q-83 0 -125 47.5t-42 139.5v473q0 31 16 47t46 16t46.5 -16t16.5 -47v-467q0 -46 19.5 -68t55.5 -22q8 0 15 0.5t14 1.5q14 2 19 -7.5t5 -38.5q0 -25 -10 -39t-33 -17q-10 -1 -21 -2t-22 -1zM178 771q-12 -13 -26.5 -13.5t-26 8t-15 21.5t5.5 27l78 115
q11 17 26.5 20.5t30.5 -2t24.5 -17t10.5 -26t-12 -28.5z" />
    <glyph glyph-name="uni013B" unicode="&#x13b;" horiz-adv-x="562" 
d="M142 0q-31 0 -48 17.5t-17 48.5v577q0 32 16.5 48.5t47.5 16.5t47.5 -16.5t16.5 -48.5v-534h290q27 0 41.5 -14t14.5 -40t-14.5 -40.5t-41.5 -14.5h-353zM336 -260q-10 -12 -22.5 -14t-22 4.5t-11 18t8.5 26.5q10 14 15 31.5t5 30.5l3 -21q-34 0 -52 15.5t-18 43.5
t17.5 43t49.5 15q33 0 50.5 -17t17.5 -52q0 -21 -4.5 -43t-13.5 -43t-23 -38z" />
    <glyph glyph-name="uni013C" unicode="&#x13c;" horiz-adv-x="319" 
d="M232 -10q-83 0 -125 47.5t-42 139.5v473q0 31 16 47t46 16t46.5 -16t16.5 -47v-467q0 -46 19.5 -68t55.5 -22q8 0 15 0.5t14 1.5q14 2 19 -7.5t5 -38.5q0 -25 -10 -39t-33 -17q-10 -1 -21 -2t-22 -1zM218 -260q-10 -12 -22.5 -14t-22 4.5t-11 18t8.5 26.5q10 14 15 31.5
t5 30.5l3 -21q-34 0 -52 15.5t-18 43.5t17.5 43t49.5 15q33 0 50.5 -17t17.5 -52q0 -21 -4.5 -43t-13.5 -43t-23 -38z" />
    <glyph glyph-name="Lcaron" unicode="&#x13d;" horiz-adv-x="562" 
d="M142 0q-31 0 -48 17.5t-17 48.5v577q0 32 16.5 48.5t47.5 16.5t47.5 -16.5t16.5 -48.5v-534h290q27 0 41.5 -14t14.5 -40t-14.5 -40.5t-41.5 -14.5h-353zM348 462q-17 0 -27 10t-10 29v163q0 24 13 36.5t36 12.5t34.5 -12.5t9.5 -38.5l-16 -163q-2 -37 -40 -37z" />
    <glyph glyph-name="lcaron" unicode="&#x13e;" horiz-adv-x="319" 
d="M232 -10q-83 0 -125 47.5t-42 139.5v473q0 31 16 47t46 16t46.5 -16t16.5 -47v-467q0 -46 19.5 -68t55.5 -22q8 0 15 0.5t14 1.5q14 2 19 -7.5t5 -38.5q0 -25 -10 -39t-33 -17q-10 -1 -21 -2t-22 -1zM259 506q-13 0 -21 8t-8 23v134q0 42 42 42q21 0 30.5 -11.5
t6.5 -32.5l-18 -134q-5 -29 -32 -29z" />
    <glyph glyph-name="Ldot" unicode="&#x13f;" horiz-adv-x="562" 
d="M142 0q-31 0 -48 17.5t-17 48.5v577q0 32 16.5 48.5t47.5 16.5t47.5 -16.5t16.5 -48.5v-534h290q27 0 41.5 -14t14.5 -40t-14.5 -40.5t-41.5 -14.5h-353zM425 320q-34 0 -54.5 21t-20.5 53q0 33 20.5 53.5t54.5 20.5q35 0 54.5 -20.5t19.5 -53.5q0 -32 -19.5 -53
t-54.5 -21z" />
    <glyph glyph-name="ldot" unicode="&#x140;" horiz-adv-x="386" 
d="M232 -10q-83 0 -125 47.5t-42 139.5v473q0 31 16 47t46 16t46.5 -16t16.5 -47v-467q0 -46 19.5 -68t55.5 -22q8 0 15 0.5t14 1.5q14 2 19 -7.5t5 -38.5q0 -25 -10 -39t-33 -17q-10 -1 -21 -2t-22 -1zM322 278q-34 0 -54.5 21t-20.5 53q0 33 20.5 53.5t54.5 20.5
q35 0 54.5 -20.5t19.5 -53.5q0 -32 -19.5 -53t-54.5 -21z" />
    <glyph glyph-name="Lslash" unicode="&#x141;" horiz-adv-x="562" 
d="M142 0q-31 0 -48 17.5t-17 48.5v577q0 32 16.5 48.5t47.5 16.5t47.5 -16.5t16.5 -48.5v-534h290q27 0 41.5 -14t14.5 -40t-14.5 -40.5t-41.5 -14.5h-353zM44 248q-19 -11 -35 -9t-26.5 12.5t-14 25.5t2.5 30t25 26l335 193q19 11 35 8.5t26.5 -13t14 -25.5t-2.5 -30
t-25 -26z" />
    <glyph glyph-name="lslash" unicode="&#x142;" horiz-adv-x="319" 
d="M232 -10q-83 0 -125 47.5t-42 139.5v473q0 31 16 47t46 16t46.5 -16t16.5 -47v-467q0 -46 19.5 -68t55.5 -22q8 0 15 0.5t14 1.5q14 2 19 -7.5t5 -38.5q0 -25 -10 -39t-33 -17q-10 -1 -21 -2t-22 -1zM47 248q-19 -11 -35 -9t-27 12.5t-14.5 25t2.5 29.5t25 26l231 134
q19 11 35 9t27 -12.5t14.5 -25t-2.5 -29.5t-25 -26z" />
    <glyph glyph-name="Nacute" unicode="&#x143;" horiz-adv-x="748" 
d="M137 -8q-29 0 -44.5 16t-15.5 46v595q0 31 15.5 47.5t40.5 16.5q23 0 34.5 -8.5t27.5 -28.5l383 -497h-26v473q0 29 15.5 45t44.5 16t44 -16t15 -45v-600q0 -28 -14 -44t-38 -16q-23 0 -36.5 9t-29.5 29l-382 497h25v-473q0 -30 -15 -46t-44 -16zM425 771
q-12 -13 -26.5 -13.5t-26 8t-15 21.5t5.5 27l78 115q11 17 26.5 20.5t30.5 -2t24.5 -17t10.5 -26t-12 -28.5z" />
    <glyph glyph-name="nacute" unicode="&#x144;" horiz-adv-x="585" 
d="M127 -8q-30 0 -46 16.5t-16 47.5v378q0 31 16 47t45 16t45 -16t16 -47v-68l-11 25q22 53 68.5 80.5t105.5 27.5t97 -22t57 -66.5t19 -112.5v-242q0 -31 -16 -47.5t-46 -16.5t-46.5 16.5t-16.5 47.5v236q0 57 -21.5 83t-66.5 26q-55 0 -87.5 -34.5t-32.5 -91.5v-219
q0 -64 -63 -64zM341 560q-10 -14 -24 -16t-27 5t-18.5 20t2.5 29l76 149q9 19 24 24.5t31 1.5t27.5 -15t14 -26.5t-8.5 -31.5z" />
    <glyph glyph-name="uni0145" unicode="&#x145;" horiz-adv-x="748" 
d="M137 -8q-29 0 -44.5 16t-15.5 46v595q0 31 15.5 47.5t40.5 16.5q23 0 34.5 -8.5t27.5 -28.5l383 -497h-26v473q0 29 15.5 45t44.5 16t44 -16t15 -45v-600q0 -28 -14 -44t-38 -16q-23 0 -36.5 9t-29.5 29l-382 497h25v-473q0 -30 -15 -46t-44 -16zM400 -260
q-10 -12 -22.5 -14t-22 4.5t-11 18t8.5 26.5q10 14 15 31.5t5 30.5l3 -21q-34 0 -52 15.5t-18 43.5t17.5 43t49.5 15q33 0 50.5 -17t17.5 -52q0 -21 -4.5 -43t-13.5 -43t-23 -38z" />
    <glyph glyph-name="uni0146" unicode="&#x146;" horiz-adv-x="585" 
d="M127 -8q-30 0 -46 16.5t-16 47.5v378q0 31 16 47t45 16t45 -16t16 -47v-68l-11 25q22 53 68.5 80.5t105.5 27.5t97 -22t57 -66.5t19 -112.5v-242q0 -31 -16 -47.5t-46 -16.5t-46.5 16.5t-16.5 47.5v236q0 57 -21.5 83t-66.5 26q-55 0 -87.5 -34.5t-32.5 -91.5v-219
q0 -64 -63 -64zM320 -260q-10 -12 -22.5 -14t-22 4.5t-11 18t8.5 26.5q10 14 15 31.5t5 30.5l3 -21q-34 0 -52 15.5t-18 43.5t17.5 43t49.5 15q33 0 50.5 -17t17.5 -52q0 -21 -4.5 -43t-13.5 -43t-23 -38z" />
    <glyph glyph-name="Ncaron" unicode="&#x147;" horiz-adv-x="748" 
d="M137 -8q-29 0 -44.5 16t-15.5 46v595q0 31 15.5 47.5t40.5 16.5q23 0 34.5 -8.5t27.5 -28.5l383 -497h-26v473q0 29 15.5 45t44.5 16t44 -16t15 -45v-600q0 -28 -14 -44t-38 -16q-23 0 -36.5 9t-29.5 29l-382 497h25v-473q0 -30 -15 -46t-44 -16zM374 754
q-22 0 -40.5 9.5t-32.5 29.5l-73 102q-10 14 -6.5 27t15.5 20.5t26.5 6t26.5 -15.5l84 -98l85 98q12 14 26.5 15.5t26 -6t15 -20t-6.5 -27.5l-72 -102q-14 -20 -32.5 -29.5t-41.5 -9.5z" />
    <glyph glyph-name="ncaron" unicode="&#x148;" horiz-adv-x="585" 
d="M127 -8q-30 0 -46 16.5t-16 47.5v378q0 31 16 47t45 16t45 -16t16 -47v-68l-11 25q22 53 68.5 80.5t105.5 27.5t97 -22t57 -66.5t19 -112.5v-242q0 -31 -16 -47.5t-46 -16.5t-46.5 16.5t-16.5 47.5v236q0 57 -21.5 83t-66.5 26q-55 0 -87.5 -34.5t-32.5 -91.5v-219
q0 -64 -63 -64zM294 536q-23 0 -40.5 12.5t-29.5 34.5l-72 131q-9 16 -4 29t17 19.5t25.5 4.5t22.5 -16l81 -126l81 126q9 14 22.5 16t25.5 -4.5t17 -19.5t-4 -29l-71 -131q-12 -22 -30 -34.5t-41 -12.5z" />
    <glyph glyph-name="napostrophe" unicode="&#x149;" horiz-adv-x="585" 
d="M65 583q-10 -12 -22.5 -14t-22 4t-11 17.5t8.5 26.5t15 32t5 30l3 -21q-34 0 -52 15.5t-18 43.5t17.5 43.5t49.5 15.5q33 0 50.5 -17t17.5 -52q0 -21 -4.5 -43.5t-13.5 -43t-23 -37.5zM127 -8q-30 0 -46 16.5t-16 47.5v378q0 31 16 47t45 16t45 -16t16 -47v-68l-11 25
q22 53 68.5 80.5t105.5 27.5t97 -22t57 -66.5t19 -112.5v-242q0 -31 -16 -47.5t-46 -16.5t-46.5 16.5t-16.5 47.5v236q0 57 -21.5 83t-66.5 26q-55 0 -87.5 -34.5t-32.5 -91.5v-219q0 -64 -63 -64z" />
    <glyph glyph-name="Eng" unicode="&#x14a;" horiz-adv-x="748" 
d="M480 -189q-22 -2 -36 6.5t-19 22t-2.5 27t12 24t25.5 11.5q46 5 69 25t23 66v58l24 -51l-405 527h25v-473q0 -30 -15 -46t-44 -16t-44.5 16t-15.5 46v595q0 31 15.5 47.5t40.5 16.5q23 0 34.5 -8.5t27.5 -28.5l383 -497h-26v473q0 29 15.5 45t44.5 16t44 -16t15 -45v-643
q0 -103 -47.5 -147t-143.5 -51z" />
    <glyph glyph-name="eng" unicode="&#x14b;" horiz-adv-x="585" 
d="M326 -191q-22 -2 -35.5 6t-19 21.5t-3 27.5t12.5 24.5t26 12.5q48 7 69.5 26.5t21.5 65.5v299q0 57 -21.5 83t-66.5 26q-55 0 -87.5 -34.5t-32.5 -91.5v-219q0 -64 -63 -64q-30 0 -46 16.5t-16 47.5v378q0 31 16 47t45 16t45 -16t16 -47v-68l-11 25q22 53 68.5 80.5
t105.5 27.5t97 -22t57 -66.5t19 -112.5v-294q0 -64 -20.5 -105t-64 -62.5t-112.5 -27.5z" />
    <glyph glyph-name="Omacron" unicode="&#x14c;" horiz-adv-x="785" 
d="M393 -10q-102 0 -178.5 45t-118.5 126.5t-42 191.5q0 83 24 149.5t68.5 114t107 73t139.5 25.5q103 0 179 -44.5t118 -125.5t42 -191q0 -83 -24 -150t-68.5 -115t-107 -73.5t-139.5 -25.5zM393 100q65 0 110.5 30t70 87t24.5 136q0 120 -53.5 186t-151.5 66
q-64 0 -110 -29.5t-70.5 -86t-24.5 -136.5q0 -119 54 -186t151 -67zM254 806q-39 0 -39 37q0 18 10 27.5t29 9.5h277q39 0 39 -37q0 -17 -10 -27t-29 -10h-277z" />
    <glyph glyph-name="omacron" unicode="&#x14d;" horiz-adv-x="576" 
d="M288 -10q-76 0 -132 31t-87 88.5t-31 135.5q0 59 17.5 105.5t50.5 80t79 51t103 17.5q76 0 132 -31t87 -88t31 -135q0 -59 -17.5 -106t-50.5 -80.5t-79 -51t-103 -17.5zM288 85q37 0 65 18t43.5 53.5t15.5 88.5q0 80 -34 119.5t-90 39.5q-37 0 -65 -17.5t-43.5 -53
t-15.5 -88.5q0 -79 34 -119.5t90 -40.5zM165 616q-39 0 -39 37q0 18 10 27.5t29 9.5h247q39 0 39 -37q0 -17 -10 -27t-29 -10h-247z" />
    <glyph glyph-name="Obreve" unicode="&#x14e;" horiz-adv-x="785" 
d="M393 -10q-102 0 -178.5 45t-118.5 126.5t-42 191.5q0 83 24 149.5t68.5 114t107 73t139.5 25.5q103 0 179 -44.5t118 -125.5t42 -191q0 -83 -24 -150t-68.5 -115t-107 -73.5t-139.5 -25.5zM393 100q65 0 110.5 30t70 87t24.5 136q0 120 -53.5 186t-151.5 66
q-64 0 -110 -29.5t-70.5 -86t-24.5 -136.5q0 -119 54 -186t151 -67zM392 760q-65 0 -112.5 34.5t-64.5 98.5q-5 20 4.5 33t23.5 14q14 2 23 -2.5t14 -11.5t7 -15q10 -41 40.5 -58.5t64.5 -17.5q35 0 65 17.5t40 58.5q2 8 7 15t14 11.5t23 2.5q14 -1 23.5 -14t4.5 -33
q-16 -64 -64 -98.5t-113 -34.5z" />
    <glyph glyph-name="obreve" unicode="&#x14f;" horiz-adv-x="576" 
d="M288 -10q-76 0 -132 31t-87 88.5t-31 135.5q0 59 17.5 105.5t50.5 80t79 51t103 17.5q76 0 132 -31t87 -88t31 -135q0 -59 -17.5 -106t-50.5 -80.5t-79 -51t-103 -17.5zM288 85q37 0 65 18t43.5 53.5t15.5 88.5q0 80 -34 119.5t-90 39.5q-37 0 -65 -17.5t-43.5 -53
t-15.5 -88.5q0 -79 34 -119.5t90 -40.5zM288 551q-47 0 -81 20.5t-54.5 56t-27.5 79.5q-3 20 6.5 32.5t25.5 13.5q17 1 27.5 -8t13.5 -28q8 -45 32 -67.5t58 -22.5t58.5 22.5t31.5 67.5q3 19 14 28t27 8q17 -1 26 -13.5t6 -32.5q-6 -44 -27 -79.5t-55 -56t-81 -20.5z" />
    <glyph glyph-name="Ohungarumlaut" unicode="&#x150;" horiz-adv-x="785" 
d="M393 -10q-102 0 -178.5 45t-118.5 126.5t-42 191.5q0 83 24 149.5t68.5 114t107 73t139.5 25.5q103 0 179 -44.5t118 -125.5t42 -191q0 -83 -24 -150t-68.5 -115t-107 -73.5t-139.5 -25.5zM393 100q65 0 110.5 30t70 87t24.5 136q0 120 -53.5 186t-151.5 66
q-64 0 -110 -29.5t-70.5 -86t-24.5 -136.5q0 -119 54 -186t151 -67zM360 773q-10 -13 -22.5 -15.5t-23 3t-15 17t2.5 25.5l60 122q8 17 22 22.5t28.5 2t24.5 -13.5t12 -24t-10 -30zM505 770q-10 -12 -22 -13.5t-22 5t-13 18t4 25.5l66 121q9 17 23 22t28 1.5t23.5 -13.5
t10.5 -24t-11 -30z" />
    <glyph glyph-name="ohungarumlaut" unicode="&#x151;" horiz-adv-x="576" 
d="M288 -10q-76 0 -132 31t-87 88.5t-31 135.5q0 59 17.5 105.5t50.5 80t79 51t103 17.5q76 0 132 -31t87 -88t31 -135q0 -59 -17.5 -106t-50.5 -80.5t-79 -51t-103 -17.5zM288 85q37 0 65 18t43.5 53.5t15.5 88.5q0 80 -34 119.5t-90 39.5q-37 0 -65 -17.5t-43.5 -53
t-15.5 -88.5q0 -79 34 -119.5t90 -40.5zM398 564q-6 -13 -17.5 -18t-23.5 -1.5t-19 13.5t-3 25l37 153q5 20 18 29t28.5 9t28.5 -7.5t18.5 -21.5t-2.5 -33zM249 564q-6 -13 -17.5 -18t-23.5 -1.5t-19 13.5t-3 25l38 153q5 19 18 28.5t28.5 9.5t28.5 -8t18 -21.5t-3 -32.5z
" />
    <glyph glyph-name="OE" unicode="&#x152;" horiz-adv-x="1056" 
d="M424 0q-177 0 -273.5 92t-96.5 261q0 85 24.5 150.5t72 110.5t116.5 68t157 23h537q25 0 38.5 -13t13.5 -37q0 -25 -13.5 -38.5t-38.5 -13.5h-302v-194h280q26 0 39 -13t13 -38t-13 -38t-39 -13h-280v-205h302q25 0 38.5 -13t13.5 -38t-13.5 -38t-38.5 -13h-537zM432 106
h104v493h-104q-61 0 -107 -15t-76.5 -46t-45.5 -77t-15 -108q0 -124 60.5 -185.5t183.5 -61.5z" />
    <glyph glyph-name="oe" unicode="&#x153;" horiz-adv-x="915" 
d="M284 -10q-74 0 -129.5 31t-86 88.5t-30.5 135.5q0 59 17.5 105.5t50 80t77.5 51t101 17.5q72 0 124 -31.5t80 -89.5h-28q24 53 77 87t121 34q69 0 118.5 -30t76.5 -85t27 -131q0 -18 -12.5 -27.5t-35.5 -9.5h-314v72h274l-16 -15q0 46 -13.5 77t-39 47.5t-63.5 16.5
q-42 0 -69.5 -19.5t-41.5 -55t-14 -84.5v-7q0 -82 36.5 -122.5t108.5 -40.5q26 0 58.5 6.5t61.5 22.5q21 12 37 10.5t25.5 -11.5t11.5 -24.5t-5.5 -29.5t-25.5 -26q-35 -22 -79.5 -32.5t-83.5 -10.5q-81 0 -139.5 32.5t-83.5 93.5h31q-28 -59 -80 -92.5t-124 -33.5zM288 85
q37 0 65 18t43.5 53.5t15.5 88.5q0 80 -34 119.5t-90 39.5q-37 0 -65 -17.5t-43.5 -53t-15.5 -88.5q0 -79 34 -119.5t90 -40.5z" />
    <glyph glyph-name="Racute" unicode="&#x154;" horiz-adv-x="686" 
d="M141 -8q-31 0 -47.5 17.5t-16.5 48.5v582q0 32 17 48.5t48 16.5h241q116 0 179 -55.5t63 -155.5q0 -65 -28.5 -112t-82.5 -72t-131 -25l9 15h33q41 0 71.5 -20t53.5 -63l75 -139q12 -21 11 -41t-15 -32.5t-41 -12.5t-44 11.5t-30 35.5l-101 186q-18 34 -42.5 45.5
t-62.5 11.5h-95v-224q0 -31 -16 -48.5t-48 -17.5zM205 377h156q69 0 104.5 28.5t35.5 85.5q0 56 -35.5 84.5t-104.5 28.5h-156v-227zM399 771q-12 -13 -26.5 -13.5t-26 8t-15 21.5t5.5 27l78 115q11 17 26.5 20.5t30.5 -2t24.5 -17t10.5 -26t-12 -28.5z" />
    <glyph glyph-name="racute" unicode="&#x155;" horiz-adv-x="392" 
d="M129 -8q-31 0 -47.5 16.5t-16.5 47.5v378q0 31 16 47t45 16t45 -16t16 -47v-63h-10q14 60 55 91t109 37q21 2 33.5 -10.5t14.5 -38.5q2 -25 -11.5 -40.5t-40.5 -18.5l-22 -2q-61 -6 -92 -37.5t-31 -88.5v-207q0 -31 -16 -47.5t-47 -16.5zM274 560q-10 -14 -24 -16t-27 5
t-18.5 20t2.5 29l76 149q9 19 24 24.5t31 1.5t27.5 -15t14 -26.5t-8.5 -31.5z" />
    <glyph glyph-name="uni0156" unicode="&#x156;" horiz-adv-x="686" 
d="M141 -8q-31 0 -47.5 17.5t-16.5 48.5v582q0 32 17 48.5t48 16.5h241q116 0 179 -55.5t63 -155.5q0 -65 -28.5 -112t-82.5 -72t-131 -25l9 15h33q41 0 71.5 -20t53.5 -63l75 -139q12 -21 11 -41t-15 -32.5t-41 -12.5t-44 11.5t-30 35.5l-101 186q-18 34 -42.5 45.5
t-62.5 11.5h-95v-224q0 -31 -16 -48.5t-48 -17.5zM205 377h156q69 0 104.5 28.5t35.5 85.5q0 56 -35.5 84.5t-104.5 28.5h-156v-227zM375 -260q-10 -12 -22.5 -14t-22 4.5t-11 18t8.5 26.5q10 14 15 31.5t5 30.5l3 -21q-34 0 -52 15.5t-18 43.5t17.5 43t49.5 15
q33 0 50.5 -17t17.5 -52q0 -21 -4.5 -43t-13.5 -43t-23 -38z" />
    <glyph glyph-name="uni0157" unicode="&#x157;" horiz-adv-x="392" 
d="M129 -8q-31 0 -47.5 16.5t-16.5 47.5v378q0 31 16 47t45 16t45 -16t16 -47v-63h-10q14 60 55 91t109 37q21 2 33.5 -10.5t14.5 -38.5q2 -25 -11.5 -40.5t-40.5 -18.5l-22 -2q-61 -6 -92 -37.5t-31 -88.5v-207q0 -31 -16 -47.5t-47 -16.5zM154 -260q-10 -12 -22.5 -14
t-22 4.5t-11 18t8.5 26.5q10 14 15 31.5t5 30.5l3 -21q-34 0 -52 15.5t-18 43.5t17.5 43t49.5 15q33 0 50.5 -17t17.5 -52q0 -21 -4.5 -43t-13.5 -43t-23 -38z" />
    <glyph glyph-name="Rcaron" unicode="&#x158;" horiz-adv-x="686" 
d="M141 -8q-31 0 -47.5 17.5t-16.5 48.5v582q0 32 17 48.5t48 16.5h241q116 0 179 -55.5t63 -155.5q0 -65 -28.5 -112t-82.5 -72t-131 -25l9 15h33q41 0 71.5 -20t53.5 -63l75 -139q12 -21 11 -41t-15 -32.5t-41 -12.5t-44 11.5t-30 35.5l-101 186q-18 34 -42.5 45.5
t-62.5 11.5h-95v-224q0 -31 -16 -48.5t-48 -17.5zM205 377h156q69 0 104.5 28.5t35.5 85.5q0 56 -35.5 84.5t-104.5 28.5h-156v-227zM348 754q-22 0 -40.5 9.5t-32.5 29.5l-73 102q-10 14 -6.5 27t15.5 20.5t26.5 6t26.5 -15.5l84 -98l85 98q12 14 26.5 15.5t26 -6t15 -20
t-6.5 -27.5l-72 -102q-14 -20 -32.5 -29.5t-41.5 -9.5z" />
    <glyph glyph-name="rcaron" unicode="&#x159;" horiz-adv-x="392" 
d="M129 -8q-31 0 -47.5 16.5t-16.5 47.5v378q0 31 16 47t45 16t45 -16t16 -47v-63h-10q14 60 55 91t109 37q21 2 33.5 -10.5t14.5 -38.5q2 -25 -11.5 -40.5t-40.5 -18.5l-22 -2q-61 -6 -92 -37.5t-31 -88.5v-207q0 -31 -16 -47.5t-47 -16.5zM227 536q-23 0 -40.5 12.5
t-29.5 34.5l-72 131q-9 16 -4 29t17 19.5t25.5 4.5t22.5 -16l81 -126l81 126q9 14 22.5 16t25.5 -4.5t17 -19.5t-4 -29l-71 -131q-12 -22 -30 -34.5t-41 -12.5z" />
    <glyph glyph-name="Sacute" unicode="&#x15a;" horiz-adv-x="631" 
d="M320 -10q-44 0 -88 6.5t-83 20t-70 33.5q-18 12 -25 29t-4.5 33.5t13 29t26.5 15.5t35 -9q44 -26 93 -38t103 -12q79 0 115 26.5t36 68.5q0 35 -25.5 55t-87.5 33l-110 23q-95 20 -141.5 67.5t-46.5 125.5q0 49 20 89t56.5 69t87 44.5t111.5 15.5q60 0 114 -15t97 -44
q16 -11 21.5 -27t2.5 -31.5t-14 -26.5t-27.5 -13t-37.5 10q-37 21 -75 30t-82 9q-46 0 -79 -13t-50.5 -36.5t-17.5 -55.5q0 -36 24 -57.5t82 -33.5l109 -23q99 -21 147.5 -66t48.5 -120q0 -48 -19.5 -87t-56 -67t-87.5 -43t-115 -15zM376 771q-12 -13 -26.5 -13.5t-26 8
t-15 21.5t5.5 27l78 115q11 17 26.5 20.5t30.5 -2t24.5 -17t10.5 -26t-12 -28.5z" />
    <glyph glyph-name="sacute" unicode="&#x15b;" horiz-adv-x="488" 
d="M244 -10q-43 0 -91 9t-86 31q-16 10 -22.5 23.5t-5 27t10 23.5t22 13t29.5 -5q40 -19 75 -26.5t69 -7.5q48 0 71.5 16.5t23.5 43.5q0 23 -15.5 35.5t-46.5 18.5l-100 19q-62 12 -94.5 45.5t-32.5 86.5q0 48 26.5 83t73.5 54t108 19q44 0 82.5 -9.5t74.5 -29.5
q15 -8 20.5 -21t2.5 -26.5t-12 -24t-22.5 -13t-30.5 5.5q-31 16 -59.5 23t-54.5 7q-49 0 -72.5 -17t-23.5 -45q0 -21 14 -35t43 -19l100 -19q65 -12 98.5 -44t33.5 -86q0 -73 -57 -114.5t-152 -41.5zM300 560q-10 -14 -24 -16t-27 5t-18.5 20t2.5 29l76 149q9 19 24 24.5
t31 1.5t27.5 -15t14 -26.5t-8.5 -31.5z" />
    <glyph glyph-name="Scircumflex" unicode="&#x15c;" horiz-adv-x="631" 
d="M320 -10q-44 0 -88 6.5t-83 20t-70 33.5q-18 12 -25 29t-4.5 33.5t13 29t26.5 15.5t35 -9q44 -26 93 -38t103 -12q79 0 115 26.5t36 68.5q0 35 -25.5 55t-87.5 33l-110 23q-95 20 -141.5 67.5t-46.5 125.5q0 49 20 89t56.5 69t87 44.5t111.5 15.5q60 0 114 -15t97 -44
q16 -11 21.5 -27t2.5 -31.5t-14 -26.5t-27.5 -13t-37.5 10q-37 21 -75 30t-82 9q-46 0 -79 -13t-50.5 -36.5t-17.5 -55.5q0 -36 24 -57.5t82 -33.5l109 -23q99 -21 147.5 -66t48.5 -120q0 -48 -19.5 -87t-56 -67t-87.5 -43t-115 -15zM241 771q-12 -13 -27 -14t-26.5 6.5
t-15 20t6.5 26.5l73 101q14 21 32.5 30.5t40.5 9.5q23 0 41 -9.5t33 -30.5l72 -101q11 -14 7.5 -26.5t-15 -20t-26.5 -6.5t-27 14l-85 98z" />
    <glyph glyph-name="scircumflex" unicode="&#x15d;" horiz-adv-x="488" 
d="M244 -10q-43 0 -91 9t-86 31q-16 10 -22.5 23.5t-5 27t10 23.5t22 13t29.5 -5q40 -19 75 -26.5t69 -7.5q48 0 71.5 16.5t23.5 43.5q0 23 -15.5 35.5t-46.5 18.5l-100 19q-62 12 -94.5 45.5t-32.5 86.5q0 48 26.5 83t73.5 54t108 19q44 0 82.5 -9.5t74.5 -29.5
q15 -8 20.5 -21t2.5 -26.5t-12 -24t-22.5 -13t-30.5 5.5q-31 16 -59.5 23t-54.5 7q-49 0 -72.5 -17t-23.5 -45q0 -21 14 -35t43 -19l100 -19q65 -12 98.5 -44t33.5 -86q0 -73 -57 -114.5t-152 -41.5zM395 597q9 -16 4 -29t-17 -19.5t-25.5 -4.5t-22.5 16l-81 126l-81 -126
q-9 -14 -22.5 -16t-25.5 4.5t-17 19.5t4 29l72 132q12 23 29.5 34t40.5 11t41 -11t30 -34z" />
    <glyph glyph-name="Scedilla" unicode="&#x15e;" horiz-adv-x="631" 
d="M320 -10q-44 0 -88 6.5t-83 20t-70 33.5q-18 12 -25 29t-4.5 33.5t13 29t26.5 15.5t35 -9q44 -26 93 -38t103 -12q79 0 115 26.5t36 68.5q0 35 -25.5 55t-87.5 33l-110 23q-95 20 -141.5 67.5t-46.5 125.5q0 49 20 89t56.5 69t87 44.5t111.5 15.5q60 0 114 -15t97 -44
q16 -11 21.5 -27t2.5 -31.5t-14 -26.5t-27.5 -13t-37.5 10q-37 21 -75 30t-82 9q-46 0 -79 -13t-50.5 -36.5t-17.5 -55.5q0 -36 24 -57.5t82 -33.5l109 -23q99 -21 147.5 -66t48.5 -120q0 -48 -19.5 -87t-56 -67t-87.5 -43t-115 -15zM324 -195q-19 0 -40 2.5t-38 8.5
q-15 5 -20.5 16.5t-2 23t14 17.5t25.5 0q13 -4 25 -6t26 -2q26 0 40 7.5t14 22.5q0 11 -8.5 17t-28.5 6q-7 0 -14.5 -0.5t-15.5 -2.5q-7 -2 -12.5 -1.5t-10.5 4.5q-4 4 -5 10t0 16l11 76h67l-13 -76l-32 11q12 4 24 6t22 2q41 0 66 -19t25 -53q0 -39 -33 -62.5t-86 -23.5z
" />
    <glyph glyph-name="scedilla" unicode="&#x15f;" horiz-adv-x="488" 
d="M244 -10q-43 0 -91 9t-86 31q-16 10 -22.5 23.5t-5 27t10 23.5t22 13t29.5 -5q40 -19 75 -26.5t69 -7.5q48 0 71.5 16.5t23.5 43.5q0 23 -15.5 35.5t-46.5 18.5l-100 19q-62 12 -94.5 45.5t-32.5 86.5q0 48 26.5 83t73.5 54t108 19q44 0 82.5 -9.5t74.5 -29.5
q15 -8 20.5 -21t2.5 -26.5t-12 -24t-22.5 -13t-30.5 5.5q-31 16 -59.5 23t-54.5 7q-49 0 -72.5 -17t-23.5 -45q0 -21 14 -35t43 -19l100 -19q65 -12 98.5 -44t33.5 -86q0 -73 -57 -114.5t-152 -41.5zM245 -195q-19 0 -40 2.5t-38 8.5q-15 5 -20.5 16.5t-2 23t14 17.5t25.5 0
q13 -4 25 -6t26 -2q26 0 40 7.5t14 22.5q0 11 -8.5 17t-28.5 6q-7 0 -14.5 -0.5t-15.5 -2.5q-7 -2 -12.5 -1.5t-10.5 4.5q-4 4 -5 10t0 16l11 76h67l-13 -76l-32 11q12 4 24 6t22 2q41 0 66 -19t25 -53q0 -39 -33 -62.5t-86 -23.5z" />
    <glyph glyph-name="Scaron" unicode="&#x160;" horiz-adv-x="631" 
d="M320 -10q-44 0 -88 6.5t-83 20t-70 33.5q-18 12 -25 29t-4.5 33.5t13 29t26.5 15.5t35 -9q44 -26 93 -38t103 -12q79 0 115 26.5t36 68.5q0 35 -25.5 55t-87.5 33l-110 23q-95 20 -141.5 67.5t-46.5 125.5q0 49 20 89t56.5 69t87 44.5t111.5 15.5q60 0 114 -15t97 -44
q16 -11 21.5 -27t2.5 -31.5t-14 -26.5t-27.5 -13t-37.5 10q-37 21 -75 30t-82 9q-46 0 -79 -13t-50.5 -36.5t-17.5 -55.5q0 -36 24 -57.5t82 -33.5l109 -23q99 -21 147.5 -66t48.5 -120q0 -48 -19.5 -87t-56 -67t-87.5 -43t-115 -15zM325 754q-22 0 -40.5 9.5t-32.5 29.5
l-73 102q-10 14 -6.5 27t15.5 20.5t26.5 6t26.5 -15.5l84 -98l85 98q12 14 26.5 15.5t26 -6t15 -20t-6.5 -27.5l-72 -102q-14 -20 -32.5 -29.5t-41.5 -9.5z" />
    <glyph glyph-name="scaron" unicode="&#x161;" horiz-adv-x="488" 
d="M244 -10q-43 0 -91 9t-86 31q-16 10 -22.5 23.5t-5 27t10 23.5t22 13t29.5 -5q40 -19 75 -26.5t69 -7.5q48 0 71.5 16.5t23.5 43.5q0 23 -15.5 35.5t-46.5 18.5l-100 19q-62 12 -94.5 45.5t-32.5 86.5q0 48 26.5 83t73.5 54t108 19q44 0 82.5 -9.5t74.5 -29.5
q15 -8 20.5 -21t2.5 -26.5t-12 -24t-22.5 -13t-30.5 5.5q-31 16 -59.5 23t-54.5 7q-49 0 -72.5 -17t-23.5 -45q0 -21 14 -35t43 -19l100 -19q65 -12 98.5 -44t33.5 -86q0 -73 -57 -114.5t-152 -41.5zM253 536q-23 0 -40.5 12.5t-29.5 34.5l-72 131q-9 16 -4 29t17 19.5
t25.5 4.5t22.5 -16l81 -126l81 126q9 14 22.5 16t25.5 -4.5t17 -19.5t-4 -29l-71 -131q-12 -22 -30 -34.5t-41 -12.5z" />
    <glyph glyph-name="uni0162" unicode="&#x162;" horiz-adv-x="621" 
d="M311 -8q-31 0 -47.5 17.5t-16.5 48.5v540h-195q-26 0 -40.5 14.5t-14.5 39.5q0 26 14.5 39.5t40.5 13.5h518q26 0 40.5 -13.5t14.5 -39.5q0 -25 -14.5 -39.5t-40.5 -14.5h-195v-540q0 -31 -16 -48.5t-48 -17.5zM312 -195q-19 0 -40 2.5t-38 8.5q-15 5 -20.5 16.5t-2 23
t14 17.5t25.5 0q13 -4 25 -6t26 -2q26 0 40 7.5t14 22.5q0 11 -8.5 17t-28.5 6q-7 0 -14.5 -0.5t-15.5 -2.5q-7 -2 -12.5 -1.5t-10.5 4.5q-4 4 -5 10t0 16l11 76h67l-13 -76l-32 11q12 4 24 6t22 2q41 0 66 -19t25 -53q0 -39 -33 -62.5t-86 -23.5z" />
    <glyph glyph-name="uni0163" unicode="&#x163;" horiz-adv-x="384" 
d="M289 -10q-65 0 -108.5 22t-64.5 64.5t-21 105.5v213h-52q-24 0 -37 12.5t-13 34.5q0 23 13 35t37 12h52v91q0 31 16.5 47t46.5 16t46 -16t16 -47v-91h106q24 0 37 -12t13 -35q0 -22 -13 -34.5t-37 -12.5h-106v-206q0 -48 21 -72t68 -24q17 0 30 3t23 4q12 1 20 -7.5
t8 -34.5q0 -20 -6.5 -35.5t-23.5 -21.5q-13 -4 -34 -7.5t-37 -3.5zM231 -195q-19 0 -40 2.5t-38 8.5q-15 5 -20.5 16.5t-2 23t14 17.5t25.5 0q13 -4 25 -6t26 -2q26 0 40 7.5t14 22.5q0 11 -8.5 17t-28.5 6q-7 0 -14.5 -0.5t-15.5 -2.5q-7 -2 -12.5 -1.5t-10.5 4.5
q-4 4 -5 10t0 16l11 76h67l-13 -76l-32 11q12 4 24 6t22 2q41 0 66 -19t25 -53q0 -39 -33 -62.5t-86 -23.5z" />
    <glyph glyph-name="Tcaron" unicode="&#x164;" horiz-adv-x="621" 
d="M311 -8q-31 0 -47.5 17.5t-16.5 48.5v540h-195q-26 0 -40.5 14.5t-14.5 39.5q0 26 14.5 39.5t40.5 13.5h518q26 0 40.5 -13.5t14.5 -39.5q0 -25 -14.5 -39.5t-40.5 -14.5h-195v-540q0 -31 -16 -48.5t-48 -17.5zM311 754q-22 0 -40.5 9.5t-32.5 29.5l-73 102
q-10 14 -6.5 27t15.5 20.5t26.5 6t26.5 -15.5l84 -98l85 98q12 14 26.5 15.5t26 -6t15 -20t-6.5 -27.5l-72 -102q-14 -20 -32.5 -29.5t-41.5 -9.5z" />
    <glyph glyph-name="tcaron" unicode="&#x165;" horiz-adv-x="384" 
d="M289 -10q-65 0 -108.5 22t-64.5 64.5t-21 105.5v213h-52q-24 0 -37 12.5t-13 34.5q0 23 13 35t37 12h52v91q0 31 16.5 47t46.5 16t46 -16t16 -47v-91h106q24 0 37 -12t13 -35q0 -22 -13 -34.5t-37 -12.5h-106v-206q0 -48 21 -72t68 -24q17 0 30 3t23 4q12 1 20 -7.5
t8 -34.5q0 -20 -6.5 -35.5t-23.5 -21.5q-13 -4 -34 -7.5t-37 -3.5zM304 523q-13 0 -21 8t-8 23v117q0 42 42 42q20 0 30 -11.5t7 -32.5l-18 -117q-2 -14 -10 -21.5t-22 -7.5z" />
    <glyph glyph-name="Tbar" unicode="&#x166;" horiz-adv-x="621" 
d="M311 -8q-31 0 -47.5 17.5t-16.5 48.5v540h-195q-26 0 -40.5 14.5t-14.5 39.5q0 26 14.5 39.5t40.5 13.5h518q26 0 40.5 -13.5t14.5 -39.5q0 -25 -14.5 -39.5t-40.5 -14.5h-195v-540q0 -31 -16 -48.5t-48 -17.5zM149 310q-24 0 -36.5 12.5t-12.5 34.5q0 23 12.5 35
t36.5 12h323q23 0 36 -11.5t13 -35.5q0 -22 -13 -34.5t-36 -12.5h-323z" />
    <glyph glyph-name="tbar" unicode="&#x167;" horiz-adv-x="384" 
d="M289 -10q-65 0 -108.5 22t-64.5 64.5t-21 105.5v213h-52q-24 0 -37 12.5t-13 34.5q0 23 13 35t37 12h52v91q0 31 16.5 47t46.5 16t46 -16t16 -47v-91h106q24 0 37 -12t13 -35q0 -22 -13 -34.5t-37 -12.5h-106v-206q0 -48 21 -72t68 -24q17 0 30 3t23 4q12 1 20 -7.5
t8 -34.5q0 -20 -6.5 -35.5t-23.5 -21.5q-13 -4 -34 -7.5t-37 -3.5zM59 223q-19 0 -30 10t-11 28t11 28t30 10h242q41 0 41 -38q0 -18 -10.5 -28t-30.5 -10h-242z" />
    <glyph glyph-name="Utilde" unicode="&#x168;" horiz-adv-x="738" 
d="M370 -10q-73 0 -128.5 19t-93.5 56.5t-57 93.5t-19 130v359q0 33 16.5 49t47.5 16t47.5 -16t16.5 -49v-358q0 -95 43.5 -142.5t126.5 -47.5t126 47.5t43 142.5v358q0 33 16.5 49t47.5 16q30 0 46.5 -16t16.5 -49v-359q0 -98 -33.5 -165t-99.5 -100.5t-163 -33.5zM181 769
q-16 1 -25 11t-5 27q12 56 46.5 86.5t83.5 30.5q28 0 52 -10t46 -23t42.5 -23t40.5 -10q26 0 41.5 13.5t20.5 33.5q4 14 13 20.5t22 5.5q16 -1 25 -11t5 -27q-12 -56 -45.5 -86.5t-83.5 -30.5q-28 0 -52.5 10t-46.5 23t-42.5 23t-40.5 10q-25 0 -41 -13.5t-21 -33.5
q-4 -13 -12.5 -20t-22.5 -6z" />
    <glyph glyph-name="utilde" unicode="&#x169;" horiz-adv-x="579" 
d="M242 -10q-61 0 -101 22.5t-59.5 67.5t-19.5 112v242q0 32 16 47.5t46 15.5t46.5 -15.5t16.5 -47.5v-244q0 -52 21 -77t67 -25q50 0 82 34.5t32 91.5v220q0 32 16 47.5t46 15.5t46.5 -15.5t16.5 -47.5v-378q0 -64 -61 -64q-29 0 -45 16.5t-16 47.5v76l14 -30
q-21 -54 -63.5 -83t-100.5 -29zM126 582q-15 1 -23 10t-4 28q4 21 12.5 41.5t22.5 37.5t34 27.5t47 10.5q25 0 44 -10t35 -23t32 -23t35 -10q21 0 36.5 14.5t19.5 36.5q2 11 10.5 17t24.5 5q15 -1 23 -10t4 -28q-5 -27 -19 -54t-37.5 -45t-59.5 -18q-25 0 -44 10t-35.5 23
t-32.5 23t-34 10q-21 0 -36 -14t-20 -37q-2 -11 -10.5 -17t-24.5 -5z" />
    <glyph glyph-name="Umacron" unicode="&#x16a;" horiz-adv-x="738" 
d="M370 -10q-73 0 -128.5 19t-93.5 56.5t-57 93.5t-19 130v359q0 33 16.5 49t47.5 16t47.5 -16t16.5 -49v-358q0 -95 43.5 -142.5t126.5 -47.5t126 47.5t43 142.5v358q0 33 16.5 49t47.5 16q30 0 46.5 -16t16.5 -49v-359q0 -98 -33.5 -165t-99.5 -100.5t-163 -33.5zM232 806
q-39 0 -39 37q0 18 10 27.5t29 9.5h277q39 0 39 -37q0 -17 -10 -27t-29 -10h-277z" />
    <glyph glyph-name="umacron" unicode="&#x16b;" horiz-adv-x="579" 
d="M242 -10q-61 0 -101 22.5t-59.5 67.5t-19.5 112v242q0 32 16 47.5t46 15.5t46.5 -15.5t16.5 -47.5v-244q0 -52 21 -77t67 -25q50 0 82 34.5t32 91.5v220q0 32 16 47.5t46 15.5t46.5 -15.5t16.5 -47.5v-378q0 -64 -61 -64q-29 0 -45 16.5t-16 47.5v76l14 -30
q-21 -54 -63.5 -83t-100.5 -29zM166 617q-39 0 -39 37q0 18 10 27.5t29 9.5h247q39 0 39 -37q0 -17 -10 -27t-29 -10h-247z" />
    <glyph glyph-name="Ubreve" unicode="&#x16c;" horiz-adv-x="738" 
d="M370 -10q-73 0 -128.5 19t-93.5 56.5t-57 93.5t-19 130v359q0 33 16.5 49t47.5 16t47.5 -16t16.5 -49v-358q0 -95 43.5 -142.5t126.5 -47.5t126 47.5t43 142.5v358q0 33 16.5 49t47.5 16q30 0 46.5 -16t16.5 -49v-359q0 -98 -33.5 -165t-99.5 -100.5t-163 -33.5zM370 760
q-65 0 -112.5 34.5t-64.5 98.5q-5 20 4.5 33t23.5 14q14 2 23 -2.5t14 -11.5t7 -15q10 -41 40.5 -58.5t64.5 -17.5q35 0 65 17.5t40 58.5q2 8 7 15t14 11.5t23 2.5q14 -1 23.5 -14t4.5 -33q-16 -64 -64 -98.5t-113 -34.5z" />
    <glyph glyph-name="ubreve" unicode="&#x16d;" horiz-adv-x="579" 
d="M242 -10q-61 0 -101 22.5t-59.5 67.5t-19.5 112v242q0 32 16 47.5t46 15.5t46.5 -15.5t16.5 -47.5v-244q0 -52 21 -77t67 -25q50 0 82 34.5t32 91.5v220q0 32 16 47.5t46 15.5t46.5 -15.5t16.5 -47.5v-378q0 -64 -61 -64q-29 0 -45 16.5t-16 47.5v76l14 -30
q-21 -54 -63.5 -83t-100.5 -29zM289 552q-47 0 -81 20.5t-54.5 56t-27.5 79.5q-3 20 6.5 32.5t25.5 13.5q17 1 27.5 -8t13.5 -28q8 -45 32 -67.5t58 -22.5t58.5 22.5t31.5 67.5q3 19 14 28t27 8q17 -1 26 -13.5t6 -32.5q-6 -44 -27 -79.5t-55 -56t-81 -20.5z" />
    <glyph glyph-name="Uring" unicode="&#x16e;" horiz-adv-x="738" 
d="M370 -10q-73 0 -128.5 19t-93.5 56.5t-57 93.5t-19 130v359q0 33 16.5 49t47.5 16t47.5 -16t16.5 -49v-358q0 -95 43.5 -142.5t126.5 -47.5t126 47.5t43 142.5v358q0 33 16.5 49t47.5 16q30 0 46.5 -16t16.5 -49v-359q0 -98 -33.5 -165t-99.5 -100.5t-163 -33.5zM370 755
q-35 0 -64 16.5t-45.5 44.5t-16.5 62q0 35 16.5 62.5t45.5 43.5t64 16q36 0 64.5 -16t45 -43.5t16.5 -62.5q0 -34 -16.5 -62t-45 -44.5t-64.5 -16.5zM370 812q29 0 47 19t18 47t-18 46.5t-47 18.5q-28 0 -46.5 -18.5t-18.5 -46.5t18.5 -47t46.5 -19z" />
    <glyph glyph-name="uring" unicode="&#x16f;" horiz-adv-x="579" 
d="M242 -10q-61 0 -101 22.5t-59.5 67.5t-19.5 112v242q0 32 16 47.5t46 15.5t46.5 -15.5t16.5 -47.5v-244q0 -52 21 -77t67 -25q50 0 82 34.5t32 91.5v220q0 32 16 47.5t46 15.5t46.5 -15.5t16.5 -47.5v-378q0 -64 -61 -64q-29 0 -45 16.5t-16 47.5v76l14 -30
q-21 -54 -63.5 -83t-100.5 -29zM289 547q-35 0 -64 16.5t-45.5 44.5t-16.5 62q0 35 16.5 62.5t45.5 43.5t64 16q36 0 64.5 -16t45 -43.5t16.5 -62.5q0 -34 -16.5 -62t-45 -44.5t-64.5 -16.5zM289 604q29 0 47 19t18 47t-18 46.5t-47 18.5q-28 0 -46.5 -18.5t-18.5 -46.5
t18.5 -47t46.5 -19z" />
    <glyph glyph-name="Uhungarumlaut" unicode="&#x170;" horiz-adv-x="738" 
d="M370 -10q-73 0 -128.5 19t-93.5 56.5t-57 93.5t-19 130v359q0 33 16.5 49t47.5 16t47.5 -16t16.5 -49v-358q0 -95 43.5 -142.5t126.5 -47.5t126 47.5t43 142.5v358q0 33 16.5 49t47.5 16q30 0 46.5 -16t16.5 -49v-359q0 -98 -33.5 -165t-99.5 -100.5t-163 -33.5zM338 773
q-10 -13 -22.5 -15.5t-23 3t-15 17t2.5 25.5l60 122q8 17 22 22.5t28.5 2t24.5 -13.5t12 -24t-10 -30zM483 770q-10 -12 -22 -13.5t-22 5t-13 18t4 25.5l66 121q9 17 23 22t28 1.5t23.5 -13.5t10.5 -24t-11 -30z" />
    <glyph glyph-name="uhungarumlaut" unicode="&#x171;" horiz-adv-x="579" 
d="M242 -10q-61 0 -101 22.5t-59.5 67.5t-19.5 112v242q0 32 16 47.5t46 15.5t46.5 -15.5t16.5 -47.5v-244q0 -52 21 -77t67 -25q50 0 82 34.5t32 91.5v220q0 32 16 47.5t46 15.5t46.5 -15.5t16.5 -47.5v-378q0 -64 -61 -64q-29 0 -45 16.5t-16 47.5v76l14 -30
q-21 -54 -63.5 -83t-100.5 -29zM399 565q-6 -13 -17.5 -18t-23.5 -1.5t-19 13.5t-3 25l37 153q5 20 18 29t28.5 9t28.5 -7.5t18.5 -21.5t-2.5 -33zM250 565q-6 -13 -17.5 -18t-23.5 -1.5t-19 13.5t-3 25l38 153q5 19 18 28.5t28.5 9.5t28.5 -8t18 -21.5t-3 -32.5z" />
    <glyph glyph-name="Uogonek" unicode="&#x172;" horiz-adv-x="738" 
d="M370 -10q-73 0 -128.5 19t-93.5 56.5t-57 93.5t-19 130v359q0 33 16.5 49t47.5 16t47.5 -16t16.5 -49v-358q0 -95 43.5 -142.5t126.5 -47.5t126 47.5t43 142.5v358q0 33 16.5 49t47.5 16q30 0 46.5 -16t16.5 -49v-359q0 -98 -33.5 -165t-99.5 -100.5t-163 -33.5z
M406 -195q-55 0 -86.5 28t-31.5 76q0 42 28 78t74 55l37 -42q-16 -7 -30 -18.5t-22 -26.5t-8 -32q0 -25 16 -38t40 -13q7 0 14.5 1t15.5 3q18 5 28 -1.5t12.5 -19t-3.5 -24t-21 -17.5q-16 -6 -32.5 -7.5t-30.5 -1.5z" />
    <glyph glyph-name="uogonek" unicode="&#x173;" horiz-adv-x="579" 
d="M392 132l14 -30q-21 -54 -63.5 -83t-100.5 -29q-61 0 -101 22.5t-59.5 67.5t-19.5 112v242q0 31 16 47t46 16t46.5 -16t16.5 -47v-244q0 -52 21 -77t67 -25q50 0 82 34.5t32 91.5v220q0 31 16 47t46 16t46.5 -16t16.5 -47v-378q0 -27 -10.5 -41t-29.5 -22
q-23 -9 -39 -27.5t-16 -42.5q0 -25 16 -38t40 -13q7 0 14.5 1t15.5 3q18 5 28 -1.5t12.5 -19t-3.5 -24t-21 -17.5q-16 -6 -32.5 -7.5t-30.5 -1.5q-55 0 -86.5 28t-31.5 76q0 35 20 66.5t54 52.5l-7 -19q-8 10 -11.5 21t-3.5 26v76z" />
    <glyph glyph-name="Wcircumflex" unicode="&#x174;" horiz-adv-x="1113" 
d="M325 -8q-27 0 -43.5 13t-26.5 41l-209 591q-11 32 4.5 54t52.5 22q27 0 42 -12.5t24 -39.5l180 -534h-40l188 533q10 27 25 40t39 13t38 -13t24 -41l182 -532h-35l183 534q9 26 24 39t41 13q32 0 47 -22t4 -54l-211 -592q-10 -27 -26 -40t-43 -13t-43 13t-26 41l-174 496
h23l-176 -497q-10 -27 -25.5 -40t-42.5 -13zM473 771q-12 -13 -27 -14t-26.5 6.5t-15 20t6.5 26.5l73 101q14 21 32.5 30.5t40.5 9.5q23 0 41 -9.5t33 -30.5l72 -101q11 -14 7.5 -26.5t-15 -20t-26.5 -6.5t-27 14l-85 98z" />
    <glyph glyph-name="wcircumflex" unicode="&#x175;" horiz-adv-x="853" 
d="M254 -8q-25 0 -43 12.5t-29 39.5l-145 370q-9 24 -5.5 42.5t18.5 29.5t40 11q22 0 36 -10.5t24 -39.5l121 -333h-23l125 341q8 22 21.5 32t35.5 10t36 -10.5t21 -31.5l123 -341h-21l122 336q10 27 25.5 37t34.5 10q24 0 37 -12t15 -30.5t-7 -40.5l-144 -370
q-10 -26 -28.5 -39t-43.5 -13t-43.5 13t-28.5 39l-131 347h57l-128 -346q-10 -27 -28 -40t-44 -13zM569 597q9 -16 4 -29t-17 -19.5t-25.5 -4.5t-22.5 16l-81 126l-81 -126q-9 -14 -22.5 -16t-25.5 4.5t-17 19.5t4 29l72 132q12 23 29.5 34t40.5 11t41 -11t30 -34z" />
    <glyph glyph-name="Ycircumflex" unicode="&#x176;" horiz-adv-x="618" 
d="M309 -8q-31 0 -47.5 17.5t-16.5 49.5v304l27 -77l-241 339q-13 18 -11.5 38.5t16.5 35t42 14.5q20 0 36.5 -10t31.5 -31l179 -254h-28l180 254q16 22 31 31.5t37 9.5q26 0 40.5 -13.5t15 -33.5t-14.5 -42l-239 -338l26 77v-304q0 -67 -64 -67zM225 771q-12 -13 -27 -14
t-26.5 6.5t-15 20t6.5 26.5l73 101q14 21 32.5 30.5t40.5 9.5q23 0 41 -9.5t33 -30.5l72 -101q11 -14 7.5 -26.5t-15 -20t-26.5 -6.5t-27 14l-85 98z" />
    <glyph glyph-name="ycircumflex" unicode="&#x177;" horiz-adv-x="526" 
d="M189 -188q-22 0 -36 11.5t-16.5 30.5t6.5 40l68 151v-52l-182 421q-9 22 -6 41t18.5 30.5t42.5 11.5q23 0 37 -10.5t25 -39.5l135 -337h-30l138 338q11 28 26 38.5t40 10.5q22 0 35 -11.5t16 -30t-7 -40.5l-243 -555q-13 -28 -28 -38t-39 -10zM406 597q9 -16 4 -29
t-17 -19.5t-25.5 -4.5t-22.5 16l-81 126l-81 -126q-9 -14 -22.5 -16t-25.5 4.5t-17 19.5t4 29l72 132q12 23 29.5 34t40.5 11t41 -11t30 -34z" />
    <glyph glyph-name="Ydieresis" unicode="&#x178;" horiz-adv-x="618" 
d="M309 -8q-31 0 -47.5 17.5t-16.5 49.5v304l27 -77l-241 339q-13 18 -11.5 38.5t16.5 35t42 14.5q20 0 36.5 -10t31.5 -31l179 -254h-28l180 254q16 22 31 31.5t37 9.5q26 0 40.5 -13.5t15 -33.5t-14.5 -42l-239 -338l26 77v-304q0 -67 -64 -67zM404 786q-30 0 -46 16
t-16 46q0 29 16 45t46 16q29 0 45 -16t16 -45q0 -30 -15.5 -46t-45.5 -16zM215 786q-29 0 -45.5 16t-16.5 46q0 29 16.5 45t45.5 16q30 0 46 -16t16 -45q0 -30 -16 -46t-46 -16z" />
    <glyph glyph-name="Zacute" unicode="&#x179;" horiz-adv-x="605" 
d="M106 0q-25 0 -40.5 10t-21 27.5t0 39t22.5 44.5l382 518v-41h-353q-28 0 -42.5 14t-14.5 40t14.5 39.5t42.5 13.5h414q25 0 40.5 -10t21 -27t0 -39t-22.5 -45l-382 -517v40h368q28 0 42.5 -13.5t14.5 -39.5t-14.5 -40t-42.5 -14h-429zM364 771q-12 -13 -26.5 -13.5t-26 8
t-15 21.5t5.5 27l78 115q11 17 26.5 20.5t30.5 -2t24.5 -17t10.5 -26t-12 -28.5z" />
    <glyph glyph-name="zacute" unicode="&#x17a;" horiz-adv-x="474" 
d="M95 0q-19 0 -31.5 9.5t-16.5 24.5t0.5 32.5t18.5 33.5l259 325v-30h-236q-23 0 -35.5 12.5t-12.5 34.5q0 23 12.5 35t35.5 12h296q22 0 36 -9.5t18.5 -24.5t0.5 -32t-18 -32l-264 -330v33h250q48 0 48 -47q0 -22 -12.5 -34.5t-35.5 -12.5h-313zM290 560q-10 -14 -24 -16
t-27 5t-18.5 20t2.5 29l76 149q9 19 24 24.5t31 1.5t27.5 -15t14 -26.5t-8.5 -31.5z" />
    <glyph glyph-name="Zdotaccent" unicode="&#x17b;" horiz-adv-x="605" 
d="M106 0q-25 0 -40.5 10t-21 27.5t0 39t22.5 44.5l382 518v-41h-353q-28 0 -42.5 14t-14.5 40t14.5 39.5t42.5 13.5h414q25 0 40.5 -10t21 -27t0 -39t-22.5 -45l-382 -517v40h368q28 0 42.5 -13.5t14.5 -39.5t-14.5 -40t-42.5 -14h-429zM313 789q-31 0 -48 16.5t-17 46.5
t17 46t48 16q32 0 48.5 -16t16.5 -46t-16.5 -46.5t-48.5 -16.5z" />
    <glyph glyph-name="zdotaccent" unicode="&#x17c;" horiz-adv-x="474" 
d="M95 0q-19 0 -31.5 9.5t-16.5 24.5t0.5 32.5t18.5 33.5l259 325v-30h-236q-23 0 -35.5 12.5t-12.5 34.5q0 23 12.5 35t35.5 12h296q22 0 36 -9.5t18.5 -24.5t0.5 -32t-18 -32l-264 -330v33h250q48 0 48 -47q0 -22 -12.5 -34.5t-35.5 -12.5h-313zM243 593q-31 0 -48 16.5
t-17 46.5t17 46t48 16q32 0 49 -16t17 -46q0 -31 -17 -47t-49 -16z" />
    <glyph glyph-name="Zcaron" unicode="&#x17d;" horiz-adv-x="605" 
d="M106 0q-25 0 -40.5 10t-21 27.5t0 39t22.5 44.5l382 518v-41h-353q-28 0 -42.5 14t-14.5 40t14.5 39.5t42.5 13.5h414q25 0 40.5 -10t21 -27t0 -39t-22.5 -45l-382 -517v40h368q28 0 42.5 -13.5t14.5 -39.5t-14.5 -40t-42.5 -14h-429zM313 754q-22 0 -40.5 9.5
t-32.5 29.5l-73 102q-10 14 -6.5 27t15.5 20.5t26.5 6t26.5 -15.5l84 -98l85 98q12 14 26.5 15.5t26 -6t15 -20t-6.5 -27.5l-72 -102q-14 -20 -32.5 -29.5t-41.5 -9.5z" />
    <glyph glyph-name="zcaron" unicode="&#x17e;" horiz-adv-x="474" 
d="M95 0q-19 0 -31.5 9.5t-16.5 24.5t0.5 32.5t18.5 33.5l259 325v-30h-236q-23 0 -35.5 12.5t-12.5 34.5q0 23 12.5 35t35.5 12h296q22 0 36 -9.5t18.5 -24.5t0.5 -32t-18 -32l-264 -330v33h250q48 0 48 -47q0 -22 -12.5 -34.5t-35.5 -12.5h-313zM243 536q-23 0 -40.5 12.5
t-29.5 34.5l-72 131q-9 16 -4 29t17 19.5t25.5 4.5t22.5 -16l81 -126l81 126q9 14 22.5 16t25.5 -4.5t17 -19.5t-4 -29l-71 -131q-12 -22 -30 -34.5t-41 -12.5z" />
    <glyph glyph-name="uni0181" unicode="&#x181;" horiz-adv-x="838" 
d="M295 0q-33 0 -50.5 17.5t-17.5 50.5v546h-26q-48 0 -72 -22.5t-24 -69.5v-16q0 -10 -5.5 -21t-17 -18t-29.5 -7t-29.5 7.5t-17.5 19t-6 22.5v18q0 86 52.5 132t155.5 46h327q74 0 126 -22t79.5 -63t27.5 -98q0 -64 -37 -108t-101 -59v15q74 -11 115 -56t41 -117
q0 -94 -63.5 -145.5t-176.5 -51.5h-251zM350 97h180q68 0 100 26.5t32 79.5q0 54 -32 80t-100 26h-180v-212zM350 406h163q66 0 98.5 25.5t32.5 75.5t-32.5 75.5t-98.5 25.5h-163v-202z" />
    <glyph glyph-name="uni018A" unicode="&#x18a;" horiz-adv-x="913" 
d="M295 0q-33 0 -50.5 17.5t-17.5 50.5v546h-26q-48 0 -72 -22.5t-24 -69.5v-16q0 -10 -5.5 -21t-17 -18t-29.5 -7t-29.5 7.5t-17.5 19t-6 22.5v18q0 86 51.5 132t151.5 46h286q177 0 273.5 -91t96.5 -261q0 -85 -24.5 -150.5t-72 -110.5t-116 -68.5t-157.5 -23.5h-194z
M355 106h126q62 0 107.5 15.5t76 46t45.5 77t15 108.5q0 124 -61 185t-183 61h-126v-493z" />
    <glyph glyph-name="uni018F" unicode="&#x18f;" horiz-adv-x="785" 
d="M400 -10q-85 0 -150 27t-108.5 76t-65.5 117.5t-22 150.5q0 23 10.5 34t30.5 11h538v-104h-482l34 53q0 -85 23.5 -143t70 -87t115.5 -29q65 0 110.5 29.5t69.5 86.5t24 141q0 82 -28 138t-82 85t-133 29q-52 0 -96.5 -10t-87.5 -33q-22 -11 -39.5 -8.5t-28.5 14.5
t-13.5 28.5t4 32.5t25.5 27q50 29 114.5 44t136.5 15q110 0 191 -44t126 -125t45 -194q0 -83 -24 -149.5t-68 -114t-105 -73t-135 -25.5z" />
    <glyph glyph-name="florin" unicode="&#x192;" 
d="M76 -190q-22 0 -37 14t-15 35q0 22 14 36t34 14h16q39 0 62 21t33 70l87 410l23 -15h-91q-22 0 -37 13.5t-15 33.5t15 33.5t37 13.5h106l-25 -17l12 56q20 89 73 138t139 49h23q21 0 33 -14t12 -35q0 -22 -11 -36.5t-28 -14.5h-16q-44 0 -67.5 -20.5t-34.5 -70.5l-11 -52
l-17 17h91q23 0 37.5 -13.5t14.5 -33.5t-14.5 -33.5t-37.5 -13.5h-108l21 16l-89 -415q-12 -59 -40 -101t-69.5 -63.5t-97.5 -21.5h-22z" />
    <glyph glyph-name="Ohorn" unicode="&#x1a0;" horiz-adv-x="785" 
d="M393 -10q-102 0 -178.5 45t-118.5 126.5t-42 191.5q0 83 24 149.5t68.5 114t107 73t139.5 25.5q103 0 179 -44.5t118 -125.5t42 -191q0 -83 -24 -150t-68.5 -115t-107 -73.5t-139.5 -25.5zM393 100q65 0 110.5 30t70 87t24.5 136q0 120 -53.5 186t-151.5 66
q-64 0 -110 -29.5t-70.5 -86t-24.5 -136.5q0 -119 54 -186t151 -67zM494 641l-44 68q23 -1 40 -2.5t33 -1.5q35 0 56 10.5t30.5 30.5t9.5 48q0 21 14 33.5t41 12.5q26 0 40 -14t14 -36q0 -40 -18 -74t-50.5 -54.5t-74.5 -20.5h-91z" />
    <glyph glyph-name="ohorn" unicode="&#x1a1;" horiz-adv-x="576" 
d="M288 -10q-76 0 -132 31t-87 88.5t-31 135.5q0 59 17.5 105.5t50.5 80t79 51t103 17.5q76 0 132 -31t87 -88t31 -135q0 -59 -17.5 -106t-50.5 -80.5t-79 -51t-103 -17.5zM288 85q37 0 65 18t43.5 53.5t15.5 88.5q0 80 -34 119.5t-90 39.5q-37 0 -65 -17.5t-43.5 -53
t-15.5 -88.5q0 -79 34 -119.5t90 -40.5zM418 425l-71 45v19q28 0 46.5 6t29.5 17t16 27.5t5 38.5q0 41 55 41q26 0 40 -10t14 -30q0 -65 -36.5 -106.5t-98.5 -47.5z" />
    <glyph glyph-name="Uhorn" unicode="&#x1af;" horiz-adv-x="738" 
d="M370 -10q-73 0 -128.5 19t-93.5 56.5t-57 93.5t-19 130v359q0 33 16.5 49t47.5 16t47.5 -16t16.5 -49v-358q0 -95 43.5 -142.5t126.5 -47.5t126 47.5t43 142.5v358q0 33 16.5 49t47.5 16q30 0 46.5 -16t16.5 -49v-359q0 -98 -33.5 -165t-99.5 -100.5t-163 -33.5zM644 641
l-71 45v19q35 0 56.5 9.5t31 30t9.5 52.5q0 22 14.5 32.5t40.5 10.5t40.5 -10t14.5 -33q0 -44 -16.5 -77.5t-47 -54t-72.5 -24.5z" />
    <glyph glyph-name="uhorn" unicode="&#x1b0;" horiz-adv-x="579" 
d="M242 -10q-61 0 -101 22.5t-59.5 67.5t-19.5 112v242q0 31 16 47t46 16t46.5 -16t16.5 -47v-244q0 -52 21 -77t67 -25q50 0 82 34.5t32 91.5v214q0 31 16 44.5t46 18.5q22 4 37 13.5t22.5 27t7.5 46.5q0 41 55 41q26 0 40 -10t14 -30q0 -59 -30 -99t-83 -52v-372
q0 -64 -61 -64q-29 0 -45 16.5t-16 47.5v76l14 -30q-21 -54 -63.5 -83t-100.5 -29z" />
    <glyph glyph-name="uni01B3" unicode="&#x1b3;" horiz-adv-x="619" 
d="M309 -8q-31 0 -47.5 17.5t-16.5 50.5v303l27 -77l-241 339q-13 18 -11 38.5t17 35t42 14.5q18 0 29 -4.5t20.5 -15t22.5 -28.5l174 -247h-27l140 203q22 31 46.5 51.5t55 31t68.5 10.5q40 0 62.5 -10t22.5 -43q0 -14 -5 -23.5t-13 -14t-18 -3.5q-7 1 -13.5 1h-12.5
q-22 0 -44.5 -11t-40.5 -37l-199 -287l26 77v-303q0 -68 -64 -68z" />
    <glyph glyph-name="uni01B4" unicode="&#x1b4;" horiz-adv-x="571" 
d="M189 -188q-22 0 -36 12t-16.5 31.5t7.5 40.5l67 149v-52l-183 421q-9 22 -6 41t19 30.5t43 11.5q23 0 37 -10.5t25 -39.5l135 -337h-30l113 274q15 36 36 61.5t53 39.5t78 14q49 0 65 -13t16 -36q0 -24 -8 -37.5t-25 -13.5q-5 0 -13 1t-19 1q-28 0 -48.5 -16t-37.5 -55
l-205 -470q-12 -28 -27.5 -38t-39.5 -10z" />
    <glyph glyph-name="uni01C4" unicode="&#x1c4;" horiz-adv-x="1352" 
d="M145 0q-33 0 -50.5 17.5t-17.5 50.5v569q0 33 17.5 50.5t50.5 17.5h194q177 0 273.5 -91t96.5 -261q0 -85 -24.5 -150.5t-72 -110.5t-116 -68.5t-157.5 -23.5h-194zM205 106h126q62 0 107.5 15.5t76 46t45.5 77t15 108.5q0 124 -61 185t-183 61h-126v-493zM853 0
q-25 0 -40.5 10t-21 27.5t0 39t22.5 44.5l382 518v-41h-353q-28 0 -42.5 14t-14.5 40t14.5 39.5t42.5 13.5h414q25 0 40.5 -10t21 -27t0 -39t-22.5 -45l-382 -517v40h368q28 0 42.5 -13.5t14.5 -39.5t-14.5 -40t-42.5 -14h-429zM1060 754q-22 0 -40.5 9.5t-32.5 29.5
l-73 102q-10 14 -6.5 27t15.5 20.5t26.5 6t26.5 -15.5l84 -98l85 98q12 14 26.5 15.5t26 -6t15 -20t-6.5 -27.5l-72 -102q-14 -20 -32.5 -29.5t-41.5 -9.5z" />
    <glyph glyph-name="uni01C5" unicode="&#x1c5;" horiz-adv-x="1236" 
d="M145 0q-33 0 -50.5 17.5t-17.5 50.5v569q0 33 17.5 50.5t50.5 17.5h194q177 0 273.5 -91t96.5 -261q0 -85 -24.5 -150.5t-72 -110.5t-116 -68.5t-157.5 -23.5h-194zM205 106h126q62 0 107.5 15.5t76 46t45.5 77t15 108.5q0 124 -61 185t-183 61h-126v-493zM857 0
q-19 0 -31.5 9.5t-16.5 24.5t0.5 32.5t18.5 33.5l259 325v-30h-236q-23 0 -35.5 12.5t-12.5 34.5q0 23 12.5 35t35.5 12h296q22 0 36 -9.5t18.5 -24.5t0.5 -32t-18 -32l-264 -330v33h250q48 0 48 -47q0 -22 -12.5 -34.5t-35.5 -12.5h-313zM1005 536q-23 0 -40.5 12.5
t-29.5 34.5l-72 131q-9 16 -4 29t17 19.5t25.5 4.5t22.5 -16l81 -126l81 126q9 14 22.5 16t25.5 -4.5t17 -19.5t-4 -29l-71 -131q-12 -22 -30 -34.5t-41 -12.5z" />
    <glyph glyph-name="uni01C6" unicode="&#x1c6;" horiz-adv-x="1074" 
d="M253 -10q-64 0 -112.5 31t-75.5 88.5t-27 135.5q0 79 27 135.5t75.5 87.5t112.5 31q61 0 106.5 -30t61.5 -79h-11v260q0 31 16 47t46 16t46.5 -16t16.5 -47v-594q0 -31 -16 -47.5t-46 -16.5t-46 16.5t-16 47.5v78l11 -30q-15 -52 -61 -83t-108 -31zM288 85q37 0 65 18
t43.5 53.5t15.5 88.5q0 80 -34 119.5t-90 39.5q-37 0 -65 -17.5t-43.5 -53t-15.5 -88.5q0 -79 34 -119.5t90 -40.5zM695 0q-19 0 -31.5 9.5t-16.5 24.5t0.5 32.5t18.5 33.5l259 325v-30h-236q-23 0 -35.5 12.5t-12.5 34.5q0 23 12.5 35t35.5 12h296q22 0 36 -9.5t18.5 -24.5
t0.5 -32t-18 -32l-264 -330v33h250q48 0 48 -47q0 -22 -12.5 -34.5t-35.5 -12.5h-313zM843 536q-23 0 -40.5 12.5t-29.5 34.5l-72 131q-9 16 -4 29t17 19.5t25.5 4.5t22.5 -16l81 -126l81 126q9 14 22.5 16t25.5 -4.5t17 -19.5t-4 -29l-71 -131q-12 -22 -30 -34.5t-41 -12.5
z" />
    <glyph glyph-name="uni01C7" unicode="&#x1c7;" horiz-adv-x="956" 
d="M142 0q-31 0 -48 17.5t-17 48.5v577q0 32 16.5 48.5t47.5 16.5t47.5 -16.5t16.5 -48.5v-534h290q27 0 41.5 -14t14.5 -40t-14.5 -40.5t-41.5 -14.5h-353zM648 -7q-28 -1 -44 15t-16 41q0 19 11.5 33.5t33.5 15.5l30 2q44 3 66.5 27.5t22.5 70.5v450q0 32 16.5 48.5
t47.5 16.5t47.5 -16.5t16.5 -48.5v-449q0 -63 -22.5 -107t-66.5 -68.5t-109 -28.5z" />
    <glyph glyph-name="uni01C8" unicode="&#x1c8;" horiz-adv-x="821" 
d="M142 0q-31 0 -48 17.5t-17 48.5v577q0 32 16.5 48.5t47.5 16.5t47.5 -16.5t16.5 -48.5v-534h290q27 0 41.5 -14t14.5 -40t-14.5 -40.5t-41.5 -14.5h-353zM567 -189q-22 -2 -36 6.5t-19.5 21.5t-3.5 27t11.5 24.5t25.5 11.5q45 4 65.5 25.5t20.5 65.5v441q0 31 16.5 47
t46.5 16t46 -16t16 -47v-430q0 -64 -20.5 -105t-62 -62t-106.5 -26zM693 589q-35 0 -54.5 17.5t-19.5 48.5q0 32 19.5 49t54.5 17q36 0 55 -17t19 -49q0 -31 -19 -48.5t-55 -17.5z" />
    <glyph glyph-name="uni01C9" unicode="&#x1c9;" horiz-adv-x="578" 
d="M232 -10q-83 0 -125 47.5t-42 139.5v473q0 31 16 47t46 16t46.5 -16t16.5 -47v-467q0 -46 19.5 -68t55.5 -22q8 0 15 0.5t14 1.5q14 2 19 -7.5t5 -38.5q0 -25 -10 -39t-33 -17q-10 -1 -21 -2t-22 -1zM324 -189q-22 -2 -36 6.5t-19.5 21.5t-3.5 27t11.5 24.5t25.5 11.5
q45 4 65.5 25.5t20.5 65.5v441q0 31 16.5 47t46.5 16t46 -16t16 -47v-430q0 -64 -20.5 -105t-62 -62t-106.5 -26zM450 589q-35 0 -54.5 17.5t-19.5 48.5q0 32 19.5 49t54.5 17q36 0 55 -17t19 -49q0 -31 -19 -48.5t-55 -17.5z" />
    <glyph glyph-name="uni01CA" unicode="&#x1ca;" horiz-adv-x="1102" 
d="M137 -8q-29 0 -44.5 16t-15.5 46v595q0 31 15.5 47.5t40.5 16.5q23 0 34.5 -8.5t27.5 -28.5l383 -497h-26v473q0 29 15.5 45t44.5 16t44 -16t15 -45v-600q0 -28 -14 -44t-38 -16q-23 0 -36.5 9t-29.5 29l-382 497h25v-473q0 -30 -15 -46t-44 -16zM794 -7q-28 -1 -44 15
t-16 41q0 19 11.5 33.5t33.5 15.5l30 2q44 3 66.5 27.5t22.5 70.5v450q0 32 16.5 48.5t47.5 16.5t47.5 -16.5t16.5 -48.5v-449q0 -63 -22.5 -107t-66.5 -68.5t-109 -28.5z" />
    <glyph glyph-name="uni01CB" unicode="&#x1cb;" horiz-adv-x="1007" 
d="M137 -8q-29 0 -44.5 16t-15.5 46v595q0 31 15.5 47.5t40.5 16.5q23 0 34.5 -8.5t27.5 -28.5l383 -497h-26v473q0 29 15.5 45t44.5 16t44 -16t15 -45v-600q0 -28 -14 -44t-38 -16q-23 0 -36.5 9t-29.5 29l-382 497h25v-473q0 -30 -15 -46t-44 -16zM753 -189
q-22 -2 -36 6.5t-19.5 21.5t-3.5 27t11.5 24.5t25.5 11.5q45 4 65.5 25.5t20.5 65.5v441q0 31 16.5 47t46.5 16t46 -16t16 -47v-430q0 -64 -20.5 -105t-62 -62t-106.5 -26zM879 589q-35 0 -54.5 17.5t-19.5 48.5q0 32 19.5 49t54.5 17q36 0 55 -17t19 -49q0 -31 -19 -48.5
t-55 -17.5z" />
    <glyph glyph-name="uni01CC" unicode="&#x1cc;" horiz-adv-x="844" 
d="M127 -8q-30 0 -46 16.5t-16 47.5v378q0 31 16 47t45 16t45 -16t16 -47v-68l-11 25q22 53 68.5 80.5t105.5 27.5t97 -22t57 -66.5t19 -112.5v-242q0 -31 -16 -47.5t-46 -16.5t-46.5 16.5t-16.5 47.5v236q0 57 -21.5 83t-66.5 26q-55 0 -87.5 -34.5t-32.5 -91.5v-219
q0 -64 -63 -64zM590 -189q-22 -2 -36 6.5t-19.5 21.5t-3.5 27t11.5 24.5t25.5 11.5q45 4 65.5 25.5t20.5 65.5v441q0 31 16.5 47t46.5 16t46 -16t16 -47v-430q0 -64 -20.5 -105t-62 -62t-106.5 -26zM716 589q-35 0 -54.5 17.5t-19.5 48.5q0 32 19.5 49t54.5 17q36 0 55 -17
t19 -49q0 -31 -19 -48.5t-55 -17.5z" />
    <glyph glyph-name="uni01CD" unicode="&#x1cd;" horiz-adv-x="744" 
d="M84 -8q-24 0 -38.5 11t-17.5 29.5t7 41.5l264 585q13 29 31.5 41.5t42.5 12.5q23 0 41.5 -12.5t31.5 -41.5l265 -585q11 -23 8 -42t-17 -29.5t-37 -10.5q-28 0 -43.5 13.5t-27.5 41.5l-65 151l54 -35h-422l54 35l-64 -151q-13 -29 -27 -42t-40 -13zM371 566l-140 -333
l-26 32h334l-25 -32l-141 333h-2zM373 754q-22 0 -40.5 9.5t-32.5 29.5l-73 102q-10 14 -6.5 27t15.5 20.5t26.5 6t26.5 -15.5l84 -98l85 98q12 14 26.5 15.5t26 -6t15 -20t-6.5 -27.5l-72 -102q-14 -20 -32.5 -29.5t-41.5 -9.5z" />
    <glyph glyph-name="uni01CE" unicode="&#x1ce;" horiz-adv-x="547" 
d="M226 -10q-53 0 -94.5 20.5t-65 55.5t-23.5 79q0 54 28 85.5t91 45.5t169 14h50v-72h-49q-62 0 -99 -6t-52.5 -20.5t-15.5 -40.5q0 -33 23 -54t64 -21q33 0 58.5 15.5t40.5 42.5t15 62v115q0 50 -22 72t-74 22q-29 0 -62.5 -7t-70.5 -24q-19 -9 -33.5 -5t-22.5 16.5
t-8 27.5t8 29.5t27 21.5q46 19 88.5 27t77.5 8q72 0 118.5 -22t69.5 -66.5t23 -114.5v-240q0 -31 -15 -47.5t-43 -16.5t-43.5 16.5t-15.5 47.5v48h8q-7 -35 -27.5 -60.5t-51.5 -39.5t-71 -14zM279 536q-23 0 -40.5 12.5t-29.5 34.5l-72 131q-9 16 -4 29t17 19.5t25.5 4.5
t22.5 -16l81 -126l81 126q9 14 22.5 16t25.5 -4.5t17 -19.5t-4 -29l-71 -131q-12 -22 -30 -34.5t-41 -12.5z" />
    <glyph glyph-name="uni01D4" unicode="&#x1d4;" horiz-adv-x="579" 
d="M242 -10q-61 0 -101 22.5t-59.5 67.5t-19.5 112v242q0 32 16 47.5t46 15.5t46.5 -15.5t16.5 -47.5v-244q0 -52 21 -77t67 -25q50 0 82 34.5t32 91.5v220q0 32 16 47.5t46 15.5t46.5 -15.5t16.5 -47.5v-378q0 -64 -61 -64q-29 0 -45 16.5t-16 47.5v76l14 -30
q-21 -54 -63.5 -83t-100.5 -29zM289 537q-23 0 -40.5 12.5t-29.5 34.5l-72 131q-9 16 -4 29t17 19.5t25.5 4.5t22.5 -16l81 -126l81 126q9 14 22.5 16t25.5 -4.5t17 -19.5t-4 -29l-71 -131q-12 -22 -30 -34.5t-41 -12.5z" />
    <glyph glyph-name="uni01E5" unicode="&#x1e5;" horiz-adv-x="604" 
d="M293 -190q-54 0 -103.5 9.5t-92.5 31.5q-19 10 -25.5 24t-3.5 29t12.5 26t23 14.5t28.5 -4.5q35 -19 79 -27t72 -8q41 0 69 12t44 35l6 -9h-77q-17 0 -28.5 11.5t-11.5 27.5q0 17 11.5 28t28.5 11h99l-11 -27q2 10 3 19t1 21v120h8q-14 -50 -60.5 -80.5t-107.5 -30.5
q-65 0 -114.5 29.5t-77 81.5t-27.5 117q0 49 15.5 90.5t44.5 72.5t69.5 48t89.5 17q61 0 107.5 -30.5t60.5 -80.5h-10v48q0 29 16.5 45t45.5 16q30 0 46 -16t16 -45v-387q0 -18 -1.5 -33t-3.5 -29l-8 34h38q17 0 28.5 -11t11.5 -28q0 -16 -11.5 -27.5t-28.5 -11.5h-60l22 10
q-23 -72 -81.5 -107.5t-151.5 -35.5zM290 138q37 0 65 17t44 47t16 69q0 59 -34.5 96t-90.5 37q-37 0 -65.5 -16.5t-44.5 -46.5t-16 -70q0 -60 35.5 -96.5t90.5 -36.5z" />
    <glyph glyph-name="Gcaron" unicode="&#x1e6;" horiz-adv-x="736" 
d="M416 -10q-117 0 -197.5 44t-122.5 125t-42 192q0 84 24.5 151t71 114.5t113.5 73t152 25.5q56 0 112.5 -13.5t106.5 -45.5q17 -11 22.5 -27t1.5 -32.5t-15 -28.5t-27.5 -15t-36.5 8q-38 22 -77 32t-87 10q-74 0 -125 -29.5t-76.5 -85.5t-25.5 -137q0 -123 59 -187
t175 -64q40 0 81 8t80 22l-25 -57v213h-110q-25 0 -38.5 13t-13.5 35q0 23 13.5 35t38.5 12h165q25 0 38.5 -13.5t13.5 -38.5v-243q0 -22 -8.5 -37t-27.5 -22q-44 -16 -101 -26.5t-112 -10.5zM401 754q-22 0 -40.5 9.5t-32.5 29.5l-73 102q-10 14 -6.5 27t15.5 20.5t26.5 6
t26.5 -15.5l84 -98l85 98q12 14 26.5 15.5t26 -6t15 -20t-6.5 -27.5l-72 -102q-14 -20 -32.5 -29.5t-41.5 -9.5z" />
    <glyph glyph-name="gcaron" unicode="&#x1e7;" horiz-adv-x="604" 
d="M293 -190q-54 0 -104.5 10t-91.5 31q-19 10 -25.5 24t-4 28.5t12 25.5t23.5 15t29 -4q44 -22 83.5 -28.5t67.5 -6.5q67 0 100.5 32.5t33.5 96.5v90h9q-15 -51 -62.5 -81.5t-107.5 -30.5q-66 0 -115 30.5t-76 85.5t-27 128q0 55 15.5 99.5t44 76.5t69 49.5t89.5 17.5
q62 0 108.5 -30.5t60.5 -80.5l-10 -25v71q0 31 16.5 47t45.5 16q30 0 46 -16t16 -47v-385q0 -119 -63 -179t-183 -60zM290 107q39 0 67 18t43.5 51.5t15.5 79.5q0 69 -34 108.5t-92 39.5q-39 0 -67 -18t-43.5 -51t-15.5 -79q0 -69 34 -109t92 -40zM303 536q-23 0 -40.5 12.5
t-29.5 34.5l-72 131q-9 16 -4 29t17 19.5t25.5 4.5t22.5 -16l81 -126l81 126q9 14 22.5 16t25.5 -4.5t17 -19.5t-4 -29l-71 -131q-12 -22 -30 -34.5t-41 -12.5z" />
    <glyph glyph-name="uni01E9" unicode="&#x1e9;" horiz-adv-x="536" 
d="M127 -8q-30 0 -46 16.5t-16 47.5v594q0 31 16 47t46 16t46.5 -16t16.5 -47v-369h2l165 174q20 20 35 31t41 11t39.5 -13.5t13.5 -32.5t-18 -38l-174 -184v52l191 -206q18 -19 16.5 -38.5t-16.5 -32t-38 -12.5q-28 0 -44.5 11t-36.5 33l-174 182h-2v-162q0 -64 -63 -64z
M294 754q-22 0 -40.5 9.5t-32.5 29.5l-73 102q-10 14 -6.5 27t15.5 20.5t26.5 6t26.5 -15.5l84 -98l85 98q12 14 26.5 15.5t26 -6t15 -20t-6.5 -27.5l-72 -102q-14 -20 -32.5 -29.5t-41.5 -9.5z" />
    <glyph glyph-name="uni01EA" unicode="&#x1ea;" horiz-adv-x="785" 
d="M393 -10q-102 0 -178.5 45t-118.5 126.5t-42 191.5q0 83 24 149.5t68.5 114t107 73t139.5 25.5q103 0 179 -44.5t118 -125.5t42 -191q0 -83 -24 -150t-68.5 -115t-107 -73.5t-139.5 -25.5zM393 100q65 0 110.5 30t70 87t24.5 136q0 120 -53.5 186t-151.5 66
q-64 0 -110 -29.5t-70.5 -86t-24.5 -136.5q0 -119 54 -186t151 -67zM431 -195q-55 0 -86.5 28t-31.5 76q0 42 28 78t74 55l37 -42q-16 -7 -30 -18.5t-22 -26.5t-8 -32q0 -25 16 -38t40 -13q7 0 14.5 1t15.5 3q18 5 28 -1.5t12.5 -19t-3.5 -24t-21 -17.5q-16 -6 -32.5 -7.5
t-30.5 -1.5z" />
    <glyph glyph-name="uni01EB" unicode="&#x1eb;" horiz-adv-x="576" 
d="M288 -10q-76 0 -132 31t-87 88.5t-31 135.5q0 59 17.5 105.5t50.5 80t79 51t103 17.5q76 0 132 -31t87 -88t31 -135q0 -59 -17.5 -106t-50.5 -80.5t-79 -51t-103 -17.5zM288 85q37 0 65 18t43.5 53.5t15.5 88.5q0 80 -34 119.5t-90 39.5q-37 0 -65 -17.5t-43.5 -53
t-15.5 -88.5q0 -79 34 -119.5t90 -40.5zM326 -195q-55 0 -86.5 28t-31.5 76q0 42 28 78t74 55l37 -42q-16 -7 -30 -18.5t-22 -26.5t-8 -32q0 -25 16 -38t40 -13q7 0 14.5 1t15.5 3q18 5 28 -1.5t12.5 -19t-3.5 -24t-21 -17.5q-16 -6 -32.5 -7.5t-30.5 -1.5z" />
    <glyph glyph-name="uni01EF" unicode="&#x1ef;" horiz-adv-x="516" 
d="M233 -190q-60 0 -109.5 11t-89.5 33q-18 10 -24.5 24.5t-4.5 29.5t11.5 26t23.5 14t31 -7q30 -17 67 -26.5t80 -9.5q73 0 109 30.5t36 88.5q0 53 -36 81.5t-106 28.5h-69q-19 0 -28 11t-6.5 27t16.5 31l209 217v-29h-268q-25 0 -38 12.5t-13 36.5q0 49 51 49h335
q21 0 34 -9.5t17.5 -25t-0.5 -33t-20 -32.5l-191 -199l-40 29h59q69 0 117.5 -22.5t74.5 -64t26 -100.5q0 -68 -31 -118t-88 -77t-135 -27zM244 536q-23 0 -40.5 12.5t-29.5 34.5l-72 131q-9 16 -4 29t17 19.5t25.5 4.5t22.5 -16l81 -126l81 126q9 14 22.5 16t25.5 -4.5
t17 -19.5t-4 -29l-71 -131q-12 -22 -30 -34.5t-41 -12.5z" />
    <glyph glyph-name="Aringacute" unicode="&#x1fa;" horiz-adv-x="744" 
d="M84 -8q-24 0 -38.5 11t-17.5 29.5t7 41.5l264 585q13 29 31.5 41.5t42.5 12.5q23 0 41.5 -12.5t31.5 -41.5l265 -585q11 -23 8 -42t-17 -29.5t-37 -10.5q-28 0 -43.5 13.5t-27.5 41.5l-65 151l54 -35h-422l54 35l-64 -151q-13 -29 -27 -42t-40 -13zM371 566l-140 -333
l-26 32h334l-25 -32l-141 333h-2zM373 755q-34 0 -61.5 15.5t-43.5 42.5t-16 60t16 59.5t43.5 42t61.5 15.5q18 0 34 -4.5t30 -12.5l68 63q13 12 26.5 11t22.5 -10.5t10 -22.5t-12 -24l-72 -62q14 -25 14 -55q0 -33 -16 -60t-43.5 -42.5t-61.5 -15.5zM373 807q29 0 47 19
t18 47t-18 46.5t-47 18.5q-28 0 -46.5 -18.5t-18.5 -46.5t18.5 -47t46.5 -19z" />
    <glyph glyph-name="aringacute" unicode="&#x1fb;" horiz-adv-x="547" 
d="M226 -10q-53 0 -94.5 20.5t-65 55.5t-23.5 79q0 54 28 85.5t91 45.5t169 14h50v-72h-49q-62 0 -99 -6t-52.5 -20.5t-15.5 -40.5q0 -33 23 -54t64 -21q33 0 58.5 15.5t40.5 42.5t15 62v115q0 50 -22 72t-74 22q-29 0 -62.5 -7t-70.5 -24q-19 -9 -33.5 -5t-22.5 16.5
t-8 27.5t8 29.5t27 21.5q46 19 88.5 27t77.5 8q72 0 118.5 -22t69.5 -66.5t23 -114.5v-240q0 -31 -15 -47.5t-43 -16.5t-43.5 16.5t-15.5 47.5v48h8q-7 -35 -27.5 -60.5t-51.5 -39.5t-71 -14zM279 541q-34 0 -61.5 15.5t-43.5 42t-16 59.5t16 60t43.5 42.5t61.5 15.5
q18 0 34 -5t30 -13l69 64q13 12 26.5 10.5t22.5 -11t10 -22t-12 -23.5l-73 -62q14 -26 14 -56q0 -33 -16 -59.5t-43.5 -42t-61.5 -15.5zM279 594q29 0 47 18t18 46q0 29 -18 47t-47 18q-28 0 -46.5 -18t-18.5 -47q0 -28 18.5 -46t46.5 -18z" />
    <glyph glyph-name="AEacute" unicode="&#x1fc;" horiz-adv-x="993" 
d="M54 -8q-28 0 -42.5 11.5t-14.5 30t12 38.5l371 598q11 19 26.5 27t37.5 8h452q26 0 39.5 -13t13.5 -37q0 -25 -13.5 -38.5t-39.5 -13.5h-393l30 34l57 -263l-43 35h328q26 0 39.5 -13t13.5 -38t-13.5 -38t-39.5 -13h-306l28 35l60 -277l-46 37h285q26 0 39.5 -13
t13.5 -38t-13.5 -38t-39.5 -13h-292q-47 0 -58 47l-33 154l42 -38h-386l48 34l-98 -165q-12 -19 -26.5 -29.5t-38.5 -10.5zM433 562l-195 -328l-9 31h302l-24 -35l-72 332h-2zM539 771q-12 -13 -26.5 -13.5t-26 8t-15 21.5t5.5 27l78 115q11 17 26.5 20.5t30.5 -2t24.5 -17
t10.5 -26t-12 -28.5z" />
    <glyph glyph-name="aeacute" unicode="&#x1fd;" horiz-adv-x="865" 
d="M236 -10q-58 0 -101.5 20.5t-67.5 55.5t-24 79q0 54 28 85.5t91.5 45.5t171.5 14h45v-72h-47q-62 0 -99 -6t-52.5 -20.5t-15.5 -40.5q0 -33 23 -54t65 -21q34 0 59 16t39.5 44t14.5 64v111q0 50 -22.5 72t-72.5 22q-29 0 -62.5 -7t-70.5 -24q-19 -9 -33.5 -5t-22.5 16.5
t-8 27.5t8 29.5t27 21.5q46 19 88.5 27t77.5 8q69 0 114.5 -25t64.5 -77h-28q26 50 77 76t106 26q51 0 92 -17t70 -48.5t44.5 -77t15.5 -102.5v-2q0 -18 -12.5 -26t-35.5 -8h-306v72h265l-15 -15q0 45 -13 76t-38.5 47t-63.5 16q-39 0 -67.5 -18.5t-43.5 -53.5t-15 -85v-7
q0 -83 36 -124t111 -41q26 0 58.5 6.5t61.5 22.5q21 12 37 10.5t25.5 -11.5t11.5 -24.5t-5.5 -29.5t-25.5 -26q-35 -22 -80.5 -32.5t-84.5 -10.5q-83 0 -143.5 34.5t-84.5 104.5h23q-16 -65 -66 -102t-124 -37zM463 560q-10 -14 -24 -16t-27 5t-18.5 20t2.5 29l76 149
q9 19 24 24.5t31 1.5t27.5 -15t14 -26.5t-8.5 -31.5z" />
    <glyph glyph-name="Oslashacute" unicode="&#x1fe;" horiz-adv-x="785" 
d="M393 -10q-102 0 -178.5 45t-118.5 126.5t-42 191.5q0 83 24 149.5t68.5 114t107 73t139.5 25.5q103 0 179 -44.5t118 -125.5t42 -191q0 -83 -24 -150t-68.5 -115t-107 -73.5t-139.5 -25.5zM393 100q65 0 110.5 30t70 87t24.5 136q0 120 -53.5 186t-151.5 66
q-64 0 -110 -29.5t-70.5 -86t-24.5 -136.5q0 -119 54 -186t151 -67zM227 -29q-10 -17 -24.5 -22t-29 -1t-25 15t-13 26.5t8.5 33.5l45 75l36 60l263 451l26 48l45 77q10 17 24 22t29 1t25.5 -14.5t13 -26t-8.5 -33.5l-45 -76l-36 -60l-263 -450l-26 -48zM443 771
q-12 -13 -26.5 -13.5t-26 8t-15 21.5t5.5 27l78 115q11 17 26.5 20.5t30.5 -2t24.5 -17t10.5 -26t-12 -28.5z" />
    <glyph glyph-name="oslashacute" unicode="&#x1ff;" horiz-adv-x="576" 
d="M288 -10q-76 0 -132 31t-87 88.5t-31 135.5q0 59 17.5 105.5t50.5 80t79 51t103 17.5q76 0 132 -31t87 -88t31 -135q0 -59 -17.5 -106t-50.5 -80.5t-79 -51t-103 -17.5zM288 85q37 0 65 18t43.5 53.5t15.5 88.5q0 80 -34 119.5t-90 39.5q-37 0 -65 -17.5t-43.5 -53
t-15.5 -88.5q0 -79 34 -119.5t90 -40.5zM171 -34q-10 -17 -25.5 -19.5t-29 5.5t-18.5 23t6 33l302 516q10 17 25.5 19t29 -6t19 -23t-5.5 -33zM335 560q-10 -14 -24 -16t-27 5t-18.5 20t2.5 29l76 149q9 19 24 24.5t31 1.5t27.5 -15t14 -26.5t-8.5 -31.5z" />
    <glyph glyph-name="uni0200" unicode="&#x200;" horiz-adv-x="744" 
d="M84 -8q-24 0 -38.5 11t-17.5 29.5t7 41.5l264 585q13 29 31.5 41.5t42.5 12.5q23 0 41.5 -12.5t31.5 -41.5l265 -585q11 -23 8 -42t-17 -29.5t-37 -10.5q-28 0 -43.5 13.5t-27.5 41.5l-65 151l54 -35h-422l54 35l-64 -151q-13 -29 -27 -42t-40 -13zM371 566l-140 -333
l-26 32h334l-25 -32l-141 333h-2zM405 773l-79 109q-12 16 -10 30t12 24t24.5 13.5t28.5 -2t22 -22.5l61 -122q7 -14 2.5 -25.5t-15.5 -17t-23.5 -3t-22.5 15.5zM261 770l-87 112q-12 16 -11 30t10.5 24t23.5 13.5t28 -1.5t23 -22l65 -121q7 -13 3.5 -25t-13 -18.5t-21.5 -5
t-21 13.5z" />
    <glyph glyph-name="uni0201" unicode="&#x201;" horiz-adv-x="547" 
d="M226 -10q-53 0 -94.5 20.5t-65 55.5t-23.5 79q0 54 28 85.5t91 45.5t169 14h50v-72h-49q-62 0 -99 -6t-52.5 -20.5t-15.5 -40.5q0 -33 23 -54t64 -21q33 0 58.5 15.5t40.5 42.5t15 62v115q0 50 -22 72t-74 22q-29 0 -62.5 -7t-70.5 -24q-19 -9 -33.5 -5t-22.5 16.5
t-8 27.5t8 29.5t27 21.5q46 19 88.5 27t77.5 8q72 0 118.5 -22t69.5 -66.5t23 -114.5v-240q0 -31 -15 -47.5t-43 -16.5t-43.5 16.5t-15.5 47.5v48h8q-7 -35 -27.5 -60.5t-51.5 -39.5t-71 -14zM318 564l-65 148q-8 19 -3 33t18 21.5t29 7.5t29 -9t18 -29l37 -153
q4 -15 -3 -25t-19 -13.5t-23.5 1.5t-17.5 18zM170 564l-65 148q-8 19 -3 33t18 21.5t28.5 7.5t28.5 -9t18 -29l38 -153q4 -15 -3 -25t-19 -13.5t-23.5 1.5t-17.5 18z" />
    <glyph glyph-name="uni0202" unicode="&#x202;" horiz-adv-x="744" 
d="M84 -8q-24 0 -38.5 11t-17.5 29.5t7 41.5l264 585q13 29 31.5 41.5t42.5 12.5q23 0 41.5 -12.5t31.5 -41.5l265 -585q11 -23 8 -42t-17 -29.5t-37 -10.5q-28 0 -43.5 13.5t-27.5 41.5l-65 151l54 -35h-422l54 35l-64 -151q-13 -29 -27 -42t-40 -13zM371 566l-140 -333
l-26 32h334l-25 -32l-141 333h-2zM224 760q-14 2 -23.5 14.5t-4.5 32.5q17 65 64.5 98.5t112.5 33.5t113 -33.5t64 -98.5q5 -20 -4.5 -32.5t-23.5 -14.5q-14 -1 -23 3t-14 11t-7 15q-10 41 -40 58.5t-65 17.5q-34 0 -64 -17.5t-41 -58.5q-2 -8 -7 -15t-14 -11t-23 -3z" />
    <glyph glyph-name="uni0203" unicode="&#x203;" horiz-adv-x="547" 
d="M226 -10q-53 0 -94.5 20.5t-65 55.5t-23.5 79q0 54 28 85.5t91 45.5t169 14h50v-72h-49q-62 0 -99 -6t-52.5 -20.5t-15.5 -40.5q0 -33 23 -54t64 -21q33 0 58.5 15.5t40.5 42.5t15 62v115q0 50 -22 72t-74 22q-29 0 -62.5 -7t-70.5 -24q-19 -9 -33.5 -5t-22.5 16.5
t-8 27.5t8 29.5t27 21.5q46 19 88.5 27t77.5 8q72 0 118.5 -22t69.5 -66.5t23 -114.5v-240q0 -31 -15 -47.5t-43 -16.5t-43.5 16.5t-15.5 47.5v48h8q-7 -35 -27.5 -60.5t-51.5 -39.5t-71 -14zM148 549q-16 1 -25.5 13.5t-6.5 32.5q7 45 27.5 80t54.5 55.5t81 20.5t81 -20.5
t55 -55.5t27 -80q3 -20 -6 -32.5t-26 -13.5q-16 -1 -27 8t-14 28q-7 45 -31.5 67.5t-58.5 22.5t-58 -22.5t-32 -67.5q-3 -19 -13.5 -28t-27.5 -8z" />
    <glyph glyph-name="uni0204" unicode="&#x204;" horiz-adv-x="597" 
d="M145 0q-33 0 -50.5 17.5t-17.5 50.5v569q0 33 17.5 50.5t50.5 17.5h357q25 0 38.5 -13t13.5 -37q0 -25 -13.5 -38.5t-38.5 -13.5h-302v-194h280q26 0 39 -13t13 -38t-13 -38t-39 -13h-280v-205h302q25 0 38.5 -13t13.5 -38t-13.5 -38t-38.5 -13h-357zM360 773l-79 109
q-12 16 -10 30t12 24t24.5 13.5t28.5 -2t22 -22.5l61 -122q7 -14 2.5 -25.5t-15.5 -17t-23.5 -3t-22.5 15.5zM216 770l-87 112q-12 16 -11 30t10.5 24t23.5 13.5t28 -1.5t23 -22l65 -121q7 -13 3.5 -25t-13 -18.5t-21.5 -5t-21 13.5z" />
    <glyph glyph-name="uni0205" unicode="&#x205;" horiz-adv-x="542" 
d="M306 -10q-83 0 -143 31t-92.5 88t-32.5 135q0 76 31.5 133t87 89.5t126.5 32.5q52 0 93.5 -17t71 -49t45 -77.5t15.5 -102.5q0 -18 -12.5 -27.5t-35.5 -9.5h-321v72h281l-16 -15q0 46 -13.5 77t-39 47.5t-63.5 16.5q-42 0 -71.5 -19.5t-45 -55t-15.5 -84.5v-7
q0 -82 38.5 -122.5t113.5 -40.5q26 0 58.5 6.5t61.5 22.5q21 12 37 10.5t25.5 -11.5t11.5 -24.5t-5.5 -29.5t-25.5 -26q-35 -22 -80.5 -32.5t-84.5 -10.5zM323 564l-65 148q-8 19 -3 33t18 21.5t29 7.5t29 -9t18 -29l37 -153q4 -15 -3 -25t-19 -13.5t-23.5 1.5t-17.5 18z
M175 564l-65 148q-8 19 -3 33t18 21.5t28.5 7.5t28.5 -9t18 -29l38 -153q4 -15 -3 -25t-19 -13.5t-23.5 1.5t-17.5 18z" />
    <glyph glyph-name="uni0206" unicode="&#x206;" horiz-adv-x="597" 
d="M145 0q-33 0 -50.5 17.5t-17.5 50.5v569q0 33 17.5 50.5t50.5 17.5h357q25 0 38.5 -13t13.5 -37q0 -25 -13.5 -38.5t-38.5 -13.5h-302v-194h280q26 0 39 -13t13 -38t-13 -38t-39 -13h-280v-205h302q25 0 38.5 -13t13.5 -38t-13.5 -38t-38.5 -13h-357zM179 760
q-14 2 -23.5 14.5t-4.5 32.5q17 65 64.5 98.5t112.5 33.5t113 -33.5t64 -98.5q5 -20 -4.5 -32.5t-23.5 -14.5q-14 -1 -23 3t-14 11t-7 15q-10 41 -40 58.5t-65 17.5q-34 0 -64 -17.5t-41 -58.5q-2 -8 -7 -15t-14 -11t-23 -3z" />
    <glyph glyph-name="uni0207" unicode="&#x207;" horiz-adv-x="542" 
d="M306 -10q-83 0 -143 31t-92.5 88t-32.5 135q0 76 31.5 133t87 89.5t126.5 32.5q52 0 93.5 -17t71 -49t45 -77.5t15.5 -102.5q0 -18 -12.5 -27.5t-35.5 -9.5h-321v72h281l-16 -15q0 46 -13.5 77t-39 47.5t-63.5 16.5q-42 0 -71.5 -19.5t-45 -55t-15.5 -84.5v-7
q0 -82 38.5 -122.5t113.5 -40.5q26 0 58.5 6.5t61.5 22.5q21 12 37 10.5t25.5 -11.5t11.5 -24.5t-5.5 -29.5t-25.5 -26q-35 -22 -80.5 -32.5t-84.5 -10.5zM153 549q-16 1 -25.5 13.5t-6.5 32.5q7 45 27.5 80t54.5 55.5t81 20.5t81 -20.5t55 -55.5t27 -80q3 -20 -6 -32.5
t-26 -13.5q-16 -1 -27 8t-14 28q-7 45 -31.5 67.5t-58.5 22.5t-58 -22.5t-32 -67.5q-3 -19 -13.5 -28t-27.5 -8z" />
    <glyph glyph-name="uni0208" unicode="&#x208;" horiz-adv-x="282" 
d="M141 -8q-31 0 -47.5 17.5t-16.5 48.5v589q0 32 16.5 49t47.5 17t47.5 -17t16.5 -49v-589q0 -31 -16 -48.5t-48 -17.5zM173 773l-79 109q-12 16 -10 30t12 24t24.5 13.5t28.5 -2t22 -22.5l61 -122q7 -14 2.5 -25.5t-15.5 -17t-23.5 -3t-22.5 15.5zM29 770l-87 112
q-12 16 -11 30t10.5 24t23.5 13.5t28 -1.5t23 -22l65 -121q7 -13 3.5 -25t-13 -18.5t-21.5 -5t-21 13.5z" />
    <glyph glyph-name="uni0209" unicode="&#x209;" horiz-adv-x="255" 
d="M127 -7q-30 0 -46 18t-16 50v367q0 33 16 50.5t46 17.5t46.5 -17.5t16.5 -50.5v-367q0 -32 -16 -50t-47 -18zM166 564l-65 148q-8 19 -3 33t18 21.5t29 7.5t29 -9t18 -29l37 -153q4 -15 -3 -25t-19 -13.5t-23.5 1.5t-17.5 18zM18 564l-65 148q-8 19 -3 33t18 21.5
t28.5 7.5t28.5 -9t18 -29l38 -153q4 -15 -3 -25t-19 -13.5t-23.5 1.5t-17.5 18z" />
    <glyph glyph-name="uni020A" unicode="&#x20a;" horiz-adv-x="282" 
d="M141 -8q-31 0 -47.5 17.5t-16.5 48.5v589q0 32 16.5 49t47.5 17t47.5 -17t16.5 -49v-589q0 -31 -16 -48.5t-48 -17.5zM-8 760q-14 2 -23.5 14.5t-4.5 32.5q17 65 64.5 98.5t112.5 33.5t113 -33.5t64 -98.5q5 -20 -4.5 -32.5t-23.5 -14.5q-14 -1 -23 3t-14 11t-7 15
q-10 41 -40 58.5t-65 17.5q-34 0 -64 -17.5t-41 -58.5q-2 -8 -7 -15t-14 -11t-23 -3z" />
    <glyph glyph-name="uni020B" unicode="&#x20b;" horiz-adv-x="255" 
d="M127 -7q-30 0 -46 18t-16 50v367q0 33 16 50.5t46 17.5t46.5 -17.5t16.5 -50.5v-367q0 -32 -16 -50t-47 -18zM-4 549q-16 1 -25.5 13.5t-6.5 32.5q7 45 27.5 80t54.5 55.5t81 20.5t81 -20.5t55 -55.5t27 -80q3 -20 -6 -32.5t-26 -13.5q-16 -1 -27 8t-14 28
q-7 45 -31.5 67.5t-58.5 22.5t-58 -22.5t-32 -67.5q-3 -19 -13.5 -28t-27.5 -8z" />
    <glyph glyph-name="uni020C" unicode="&#x20c;" horiz-adv-x="785" 
d="M393 -10q-102 0 -178.5 45t-118.5 126.5t-42 191.5q0 83 24 149.5t68.5 114t107 73t139.5 25.5q103 0 179 -44.5t118 -125.5t42 -191q0 -83 -24 -150t-68.5 -115t-107 -73.5t-139.5 -25.5zM393 100q65 0 110.5 30t70 87t24.5 136q0 120 -53.5 186t-151.5 66
q-64 0 -110 -29.5t-70.5 -86t-24.5 -136.5q0 -119 54 -186t151 -67zM424 773l-79 109q-12 16 -10 30t12 24t24.5 13.5t28.5 -2t22 -22.5l61 -122q7 -14 2.5 -25.5t-15.5 -17t-23.5 -3t-22.5 15.5zM280 770l-87 112q-12 16 -11 30t10.5 24t23.5 13.5t28 -1.5t23 -22l65 -121
q7 -13 3.5 -25t-13 -18.5t-21.5 -5t-21 13.5z" />
    <glyph glyph-name="uni020D" unicode="&#x20d;" horiz-adv-x="576" 
d="M288 -10q-76 0 -132 31t-87 88.5t-31 135.5q0 59 17.5 105.5t50.5 80t79 51t103 17.5q76 0 132 -31t87 -88t31 -135q0 -59 -17.5 -106t-50.5 -80.5t-79 -51t-103 -17.5zM288 85q37 0 65 18t43.5 53.5t15.5 88.5q0 80 -34 119.5t-90 39.5q-37 0 -65 -17.5t-43.5 -53
t-15.5 -88.5q0 -79 34 -119.5t90 -40.5zM327 564l-65 148q-8 19 -3 33t18 21.5t29 7.5t29 -9t18 -29l37 -153q4 -15 -3 -25t-19 -13.5t-23.5 1.5t-17.5 18zM179 564l-65 148q-8 19 -3 33t18 21.5t28.5 7.5t28.5 -9t18 -29l38 -153q4 -15 -3 -25t-19 -13.5t-23.5 1.5
t-17.5 18z" />
    <glyph glyph-name="uni020E" unicode="&#x20e;" horiz-adv-x="785" 
d="M393 -10q-102 0 -178.5 45t-118.5 126.5t-42 191.5q0 83 24 149.5t68.5 114t107 73t139.5 25.5q103 0 179 -44.5t118 -125.5t42 -191q0 -83 -24 -150t-68.5 -115t-107 -73.5t-139.5 -25.5zM393 100q65 0 110.5 30t70 87t24.5 136q0 120 -53.5 186t-151.5 66
q-64 0 -110 -29.5t-70.5 -86t-24.5 -136.5q0 -119 54 -186t151 -67zM243 760q-14 2 -23.5 14.5t-4.5 32.5q17 65 64.5 98.5t112.5 33.5t113 -33.5t64 -98.5q5 -20 -4.5 -32.5t-23.5 -14.5q-14 -1 -23 3t-14 11t-7 15q-10 41 -40 58.5t-65 17.5q-34 0 -64 -17.5t-41 -58.5
q-2 -8 -7 -15t-14 -11t-23 -3z" />
    <glyph glyph-name="uni020F" unicode="&#x20f;" horiz-adv-x="576" 
d="M288 -10q-76 0 -132 31t-87 88.5t-31 135.5q0 59 17.5 105.5t50.5 80t79 51t103 17.5q76 0 132 -31t87 -88t31 -135q0 -59 -17.5 -106t-50.5 -80.5t-79 -51t-103 -17.5zM288 85q37 0 65 18t43.5 53.5t15.5 88.5q0 80 -34 119.5t-90 39.5q-37 0 -65 -17.5t-43.5 -53
t-15.5 -88.5q0 -79 34 -119.5t90 -40.5zM157 549q-16 1 -25.5 13.5t-6.5 32.5q7 45 27.5 80t54.5 55.5t81 20.5t81 -20.5t55 -55.5t27 -80q3 -20 -6 -32.5t-26 -13.5q-16 -1 -27 8t-14 28q-7 45 -31.5 67.5t-58.5 22.5t-58 -22.5t-32 -67.5q-3 -19 -13.5 -28t-27.5 -8z" />
    <glyph glyph-name="uni0210" unicode="&#x210;" horiz-adv-x="686" 
d="M141 -8q-31 0 -47.5 17.5t-16.5 48.5v582q0 32 17 48.5t48 16.5h241q116 0 179 -55.5t63 -155.5q0 -65 -28.5 -112t-82.5 -72t-131 -25l9 15h33q41 0 71.5 -20t53.5 -63l75 -139q12 -21 11 -41t-15 -32.5t-41 -12.5t-44 11.5t-30 35.5l-101 186q-18 34 -42.5 45.5
t-62.5 11.5h-95v-224q0 -31 -16 -48.5t-48 -17.5zM205 377h156q69 0 104.5 28.5t35.5 85.5q0 56 -35.5 84.5t-104.5 28.5h-156v-227zM380 773l-79 109q-12 16 -10 30t12 24t24.5 13.5t28.5 -2t22 -22.5l61 -122q7 -14 2.5 -25.5t-15.5 -17t-23.5 -3t-22.5 15.5zM236 770
l-87 112q-12 16 -11 30t10.5 24t23.5 13.5t28 -1.5t23 -22l65 -121q7 -13 3.5 -25t-13 -18.5t-21.5 -5t-21 13.5z" />
    <glyph glyph-name="uni0211" unicode="&#x211;" horiz-adv-x="392" 
d="M129 -8q-31 0 -47.5 16.5t-16.5 47.5v378q0 31 16 47t45 16t45 -16t16 -47v-63h-10q14 60 55 91t109 37q21 2 33.5 -10.5t14.5 -38.5q2 -25 -11.5 -40.5t-40.5 -18.5l-22 -2q-61 -6 -92 -37.5t-31 -88.5v-207q0 -31 -16 -47.5t-47 -16.5zM266 564l-65 148q-8 19 -3 33
t18 21.5t29 7.5t29 -9t18 -29l37 -153q4 -15 -3 -25t-19 -13.5t-23.5 1.5t-17.5 18zM118 564l-65 148q-8 19 -3 33t18 21.5t28.5 7.5t28.5 -9t18 -29l38 -153q4 -15 -3 -25t-19 -13.5t-23.5 1.5t-17.5 18z" />
    <glyph glyph-name="uni0212" unicode="&#x212;" horiz-adv-x="686" 
d="M141 -8q-31 0 -47.5 17.5t-16.5 48.5v582q0 32 17 48.5t48 16.5h241q116 0 179 -55.5t63 -155.5q0 -65 -28.5 -112t-82.5 -72t-131 -25l9 15h33q41 0 71.5 -20t53.5 -63l75 -139q12 -21 11 -41t-15 -32.5t-41 -12.5t-44 11.5t-30 35.5l-101 186q-18 34 -42.5 45.5
t-62.5 11.5h-95v-224q0 -31 -16 -48.5t-48 -17.5zM205 377h156q69 0 104.5 28.5t35.5 85.5q0 56 -35.5 84.5t-104.5 28.5h-156v-227zM199 760q-14 2 -23.5 14.5t-4.5 32.5q17 65 64.5 98.5t112.5 33.5t113 -33.5t64 -98.5q5 -20 -4.5 -32.5t-23.5 -14.5q-14 -1 -23 3t-14 11
t-7 15q-10 41 -40 58.5t-65 17.5q-34 0 -64 -17.5t-41 -58.5q-2 -8 -7 -15t-14 -11t-23 -3z" />
    <glyph glyph-name="uni0213" unicode="&#x213;" horiz-adv-x="392" 
d="M129 -8q-31 0 -47.5 16.5t-16.5 47.5v378q0 31 16 47t45 16t45 -16t16 -47v-63h-10q14 60 55 91t109 37q21 2 33.5 -10.5t14.5 -38.5q2 -25 -11.5 -40.5t-40.5 -18.5l-22 -2q-61 -6 -92 -37.5t-31 -88.5v-207q0 -31 -16 -47.5t-47 -16.5zM96 549q-16 1 -25.5 13.5
t-6.5 32.5q7 45 27.5 80t54.5 55.5t81 20.5t81 -20.5t55 -55.5t27 -80q3 -20 -6 -32.5t-26 -13.5q-16 -1 -27 8t-14 28q-7 45 -31.5 67.5t-58.5 22.5t-58 -22.5t-32 -67.5q-3 -19 -13.5 -28t-27.5 -8z" />
    <glyph glyph-name="uni0214" unicode="&#x214;" horiz-adv-x="738" 
d="M370 -10q-73 0 -128.5 19t-93.5 56.5t-57 93.5t-19 130v359q0 33 16.5 49t47.5 16t47.5 -16t16.5 -49v-358q0 -95 43.5 -142.5t126.5 -47.5t126 47.5t43 142.5v358q0 33 16.5 49t47.5 16q30 0 46.5 -16t16.5 -49v-359q0 -98 -33.5 -165t-99.5 -100.5t-163 -33.5zM402 773
l-79 109q-12 16 -10 30t12 24t24.5 13.5t28.5 -2t22 -22.5l61 -122q7 -14 2.5 -25.5t-15.5 -17t-23.5 -3t-22.5 15.5zM258 770l-87 112q-12 16 -11 30t10.5 24t23.5 13.5t28 -1.5t23 -22l65 -121q7 -13 3.5 -25t-13 -18.5t-21.5 -5t-21 13.5z" />
    <glyph glyph-name="uni0215" unicode="&#x215;" horiz-adv-x="579" 
d="M242 -10q-61 0 -101 22.5t-59.5 67.5t-19.5 112v242q0 32 16 47.5t46 15.5t46.5 -15.5t16.5 -47.5v-244q0 -52 21 -77t67 -25q50 0 82 34.5t32 91.5v220q0 32 16 47.5t46 15.5t46.5 -15.5t16.5 -47.5v-378q0 -64 -61 -64q-29 0 -45 16.5t-16 47.5v76l14 -30
q-21 -54 -63.5 -83t-100.5 -29zM328 565l-65 148q-8 19 -3 33t18 21.5t29 7.5t29 -9t18 -29l37 -153q4 -15 -3 -25t-19 -13.5t-23.5 1.5t-17.5 18zM180 565l-65 148q-8 19 -3 33t18 21.5t28.5 7.5t28.5 -9t18 -29l38 -153q4 -15 -3 -25t-19 -13.5t-23.5 1.5t-17.5 18z" />
    <glyph glyph-name="uni0216" unicode="&#x216;" horiz-adv-x="738" 
d="M370 -10q-73 0 -128.5 19t-93.5 56.5t-57 93.5t-19 130v359q0 33 16.5 49t47.5 16t47.5 -16t16.5 -49v-358q0 -95 43.5 -142.5t126.5 -47.5t126 47.5t43 142.5v358q0 33 16.5 49t47.5 16q30 0 46.5 -16t16.5 -49v-359q0 -98 -33.5 -165t-99.5 -100.5t-163 -33.5zM221 760
q-14 2 -23.5 14.5t-4.5 32.5q17 65 64.5 98.5t112.5 33.5t113 -33.5t64 -98.5q5 -20 -4.5 -32.5t-23.5 -14.5q-14 -1 -23 3t-14 11t-7 15q-10 41 -40 58.5t-65 17.5q-34 0 -64 -17.5t-41 -58.5q-2 -8 -7 -15t-14 -11t-23 -3z" />
    <glyph glyph-name="uni0217" unicode="&#x217;" horiz-adv-x="579" 
d="M242 -10q-61 0 -101 22.5t-59.5 67.5t-19.5 112v242q0 32 16 47.5t46 15.5t46.5 -15.5t16.5 -47.5v-244q0 -52 21 -77t67 -25q50 0 82 34.5t32 91.5v220q0 32 16 47.5t46 15.5t46.5 -15.5t16.5 -47.5v-378q0 -64 -61 -64q-29 0 -45 16.5t-16 47.5v76l14 -30
q-21 -54 -63.5 -83t-100.5 -29zM158 550q-16 1 -25.5 13.5t-6.5 32.5q7 45 27.5 80t54.5 55.5t81 20.5t81 -20.5t55 -55.5t27 -80q3 -20 -6 -32.5t-26 -13.5q-16 -1 -27 8t-14 28q-7 45 -31.5 67.5t-58.5 22.5t-58 -22.5t-32 -67.5q-3 -19 -13.5 -28t-27.5 -8z" />
    <glyph glyph-name="uni0218" unicode="&#x218;" horiz-adv-x="631" 
d="M320 -10q-44 0 -88 6.5t-83 20t-70 33.5q-18 12 -25 29t-4.5 33.5t13 29t26.5 15.5t35 -9q44 -26 93 -38t103 -12q79 0 115 26.5t36 68.5q0 35 -25.5 55t-87.5 33l-110 23q-95 20 -141.5 67.5t-46.5 125.5q0 49 20 89t56.5 69t87 44.5t111.5 15.5q60 0 114 -15t97 -44
q16 -11 21.5 -27t2.5 -31.5t-14 -26.5t-27.5 -13t-37.5 10q-37 21 -75 30t-82 9q-46 0 -79 -13t-50.5 -36.5t-17.5 -55.5q0 -36 24 -57.5t82 -33.5l109 -23q99 -21 147.5 -66t48.5 -120q0 -48 -19.5 -87t-56 -67t-87.5 -43t-115 -15zM349 -260q-10 -12 -22.5 -14t-22 4.5
t-11 18t8.5 26.5q10 14 15 31.5t5 30.5l3 -21q-34 0 -52 15.5t-18 43.5t17.5 43t49.5 15q33 0 50.5 -17t17.5 -52q0 -21 -4.5 -43t-13.5 -43t-23 -38z" />
    <glyph glyph-name="uni0219" unicode="&#x219;" horiz-adv-x="488" 
d="M244 -10q-43 0 -91 9t-86 31q-16 10 -22.5 23.5t-5 27t10 23.5t22 13t29.5 -5q40 -19 75 -26.5t69 -7.5q48 0 71.5 16.5t23.5 43.5q0 23 -15.5 35.5t-46.5 18.5l-100 19q-62 12 -94.5 45.5t-32.5 86.5q0 48 26.5 83t73.5 54t108 19q44 0 82.5 -9.5t74.5 -29.5
q15 -8 20.5 -21t2.5 -26.5t-12 -24t-22.5 -13t-30.5 5.5q-31 16 -59.5 23t-54.5 7q-49 0 -72.5 -17t-23.5 -45q0 -21 14 -35t43 -19l100 -19q65 -12 98.5 -44t33.5 -86q0 -73 -57 -114.5t-152 -41.5zM270 -260q-10 -12 -22.5 -14t-22 4.5t-11 18t8.5 26.5q10 14 15 31.5
t5 30.5l3 -21q-34 0 -52 15.5t-18 43.5t17.5 43t49.5 15q33 0 50.5 -17t17.5 -52q0 -21 -4.5 -43t-13.5 -43t-23 -38z" />
    <glyph glyph-name="uni021A" unicode="&#x21a;" horiz-adv-x="621" 
d="M311 -8q-31 0 -47.5 17.5t-16.5 48.5v540h-195q-26 0 -40.5 14.5t-14.5 39.5q0 26 14.5 39.5t40.5 13.5h518q26 0 40.5 -13.5t14.5 -39.5q0 -25 -14.5 -39.5t-40.5 -14.5h-195v-540q0 -31 -16 -48.5t-48 -17.5zM337 -260q-10 -12 -22.5 -14t-22 4.5t-11 18t8.5 26.5
q10 14 15 31.5t5 30.5l3 -21q-34 0 -52 15.5t-18 43.5t17.5 43t49.5 15q33 0 50.5 -17t17.5 -52q0 -21 -4.5 -43t-13.5 -43t-23 -38z" />
    <glyph glyph-name="uni021B" unicode="&#x21b;" horiz-adv-x="384" 
d="M289 -10q-65 0 -108.5 22t-64.5 64.5t-21 105.5v213h-52q-24 0 -37 12.5t-13 34.5q0 23 13 35t37 12h52v91q0 31 16.5 47t46.5 16t46 -16t16 -47v-91h106q24 0 37 -12t13 -35q0 -22 -13 -34.5t-37 -12.5h-106v-206q0 -48 21 -72t68 -24q17 0 30 3t23 4q12 1 20 -7.5
t8 -34.5q0 -20 -6.5 -35.5t-23.5 -21.5q-13 -4 -34 -7.5t-37 -3.5zM256 -260q-10 -12 -22.5 -14t-22 4.5t-11 18t8.5 26.5q10 14 15 31.5t5 30.5l3 -21q-34 0 -52 15.5t-18 43.5t17.5 43t49.5 15q33 0 50.5 -17t17.5 -52q0 -21 -4.5 -43t-13.5 -43t-23 -38z" />
    <glyph glyph-name="uni021F" unicode="&#x21f;" horiz-adv-x="585" 
d="M127 -8q-30 0 -46 16.5t-16 47.5v594q0 31 16 47t46 16t46.5 -16t16.5 -47v-259h-14q22 53 68.5 80.5t105.5 27.5t97 -22t57 -66.5t19 -112.5v-242q0 -31 -16 -47.5t-46 -16.5t-46.5 16.5t-16.5 47.5v236q0 57 -21.5 83t-66.5 26q-55 0 -87.5 -34.5t-32.5 -91.5v-219
q0 -64 -63 -64zM294 754q-22 0 -40.5 9.5t-32.5 29.5l-73 102q-10 14 -6.5 27t15.5 20.5t26.5 6t26.5 -15.5l84 -98l85 98q12 14 26.5 15.5t26 -6t15 -20t-6.5 -27.5l-72 -102q-14 -20 -32.5 -29.5t-41.5 -9.5z" />
    <glyph glyph-name="uni0226" unicode="&#x226;" horiz-adv-x="744" 
d="M84 -8q-24 0 -38.5 11t-17.5 29.5t7 41.5l264 585q13 29 31.5 41.5t42.5 12.5q23 0 41.5 -12.5t31.5 -41.5l265 -585q11 -23 8 -42t-17 -29.5t-37 -10.5q-28 0 -43.5 13.5t-27.5 41.5l-65 151l54 -35h-422l54 35l-64 -151q-13 -29 -27 -42t-40 -13zM371 566l-140 -333
l-26 32h334l-25 -32l-141 333h-2zM373 789q-31 0 -48 16.5t-17 46.5t17 46t48 16q32 0 48.5 -16t16.5 -46t-16.5 -46.5t-48.5 -16.5z" />
    <glyph glyph-name="uni0227" unicode="&#x227;" horiz-adv-x="547" 
d="M226 -10q-53 0 -94.5 20.5t-65 55.5t-23.5 79q0 54 28 85.5t91 45.5t169 14h50v-72h-49q-62 0 -99 -6t-52.5 -20.5t-15.5 -40.5q0 -33 23 -54t64 -21q33 0 58.5 15.5t40.5 42.5t15 62v115q0 50 -22 72t-74 22q-29 0 -62.5 -7t-70.5 -24q-19 -9 -33.5 -5t-22.5 16.5
t-8 27.5t8 29.5t27 21.5q46 19 88.5 27t77.5 8q72 0 118.5 -22t69.5 -66.5t23 -114.5v-240q0 -31 -15 -47.5t-43 -16.5t-43.5 16.5t-15.5 47.5v48h8q-7 -35 -27.5 -60.5t-51.5 -39.5t-71 -14zM279 593q-31 0 -48 16.5t-17 46.5t17 46t48 16q32 0 49 -16t17 -46
q0 -31 -17 -47t-49 -16z" />
    <glyph glyph-name="uni0228" unicode="&#x228;" horiz-adv-x="597" 
d="M145 0q-33 0 -50.5 17.5t-17.5 50.5v569q0 33 17.5 50.5t50.5 17.5h357q25 0 38.5 -13t13.5 -37q0 -25 -13.5 -38.5t-38.5 -13.5h-302v-194h280q26 0 39 -13t13 -38t-13 -38t-39 -13h-280v-205h302q25 0 38.5 -13t13.5 -38t-13.5 -38t-38.5 -13h-357zM329 -195
q-19 0 -40 2.5t-38 8.5q-15 5 -20.5 16.5t-2 23t14 17.5t25.5 0q13 -4 25 -6t26 -2q26 0 40 7.5t14 22.5q0 11 -8.5 17t-28.5 6q-7 0 -14.5 -0.5t-15.5 -2.5q-7 -2 -12.5 -1.5t-10.5 4.5q-4 4 -5 10t0 16l11 76h67l-13 -76l-32 11q12 4 24 6t22 2q41 0 66 -19t25 -53
q0 -39 -33 -62.5t-86 -23.5z" />
    <glyph glyph-name="uni022A" unicode="&#x22a;" horiz-adv-x="785" 
d="M393 -10q-102 0 -178.5 45t-118.5 126.5t-42 191.5q0 83 24 149.5t68.5 114t107 73t139.5 25.5q103 0 179 -44.5t118 -125.5t42 -191q0 -83 -24 -150t-68.5 -115t-107 -73.5t-139.5 -25.5zM393 100q65 0 110.5 30t70 87t24.5 136q0 120 -53.5 186t-151.5 66
q-64 0 -110 -29.5t-70.5 -86t-24.5 -136.5q0 -119 54 -186t151 -67zM272 924q-20 0 -31 10t-11 27q0 18 11 27.5t31 9.5h240q20 0 31 -9.5t11 -27.5q0 -17 -11 -27t-31 -10h-240zM298 783q-29 0 -45.5 13t-16.5 36t16.5 35.5t45.5 12.5q30 0 46 -12.5t16 -35.5t-16 -36
t-46 -13zM487 783q-30 0 -46 13t-16 36t16 35.5t46 12.5q29 0 45 -12.5t16 -35.5t-15.5 -36t-45.5 -13z" />
    <glyph glyph-name="uni022B" unicode="&#x22b;" horiz-adv-x="576" 
d="M288 -10q-76 0 -132 31t-87 88.5t-31 135.5q0 59 17.5 105.5t50.5 80t79 51t103 17.5q76 0 132 -31t87 -88t31 -135q0 -59 -17.5 -106t-50.5 -80.5t-79 -51t-103 -17.5zM288 85q37 0 65 18t43.5 53.5t15.5 88.5q0 80 -34 119.5t-90 39.5q-37 0 -65 -17.5t-43.5 -53
t-15.5 -88.5q0 -79 34 -119.5t90 -40.5zM168 708q-20 0 -31 10t-11 27q0 18 11 27.5t31 9.5h240q20 0 31 -9.5t11 -27.5q0 -17 -11 -27t-31 -10h-240zM194 567q-29 0 -45.5 13t-16.5 36t16.5 35.5t45.5 12.5q30 0 46 -12.5t16 -35.5t-16 -36t-46 -13zM383 567q-30 0 -46 13
t-16 36t16 35.5t46 12.5q29 0 45 -12.5t16 -35.5t-15.5 -36t-45.5 -13z" />
    <glyph glyph-name="uni022C" unicode="&#x22c;" horiz-adv-x="785" 
d="M393 -10q-102 0 -178.5 45t-118.5 126.5t-42 191.5q0 83 24 149.5t68.5 114t107 73t139.5 25.5q103 0 179 -44.5t118 -125.5t42 -191q0 -83 -24 -150t-68.5 -115t-107 -73.5t-139.5 -25.5zM393 100q65 0 110.5 30t70 87t24.5 136q0 120 -53.5 186t-151.5 66
q-64 0 -110 -29.5t-70.5 -86t-24.5 -136.5q0 -119 54 -186t151 -67zM272 924q-20 0 -31 10t-11 27q0 18 11 27.5t31 9.5h240q20 0 31 -9.5t11 -27.5q0 -17 -11 -27t-31 -10h-240zM251 765q-14 1 -21.5 11t-3.5 26q10 37 36.5 56t63.5 19q27 0 49 -11t41.5 -22t38.5 -11
q15 0 27 5.5t17 18.5q5 11 13.5 17t21.5 5q14 -1 22 -10.5t3 -26.5q-10 -37 -36.5 -56t-63.5 -19q-27 0 -49.5 11t-41.5 22t-38 11q-15 0 -27 -5.5t-17 -18.5q-4 -11 -12.5 -17t-22.5 -5z" />
    <glyph glyph-name="uni022D" unicode="&#x22d;" horiz-adv-x="576" 
d="M288 -10q-76 0 -132 31t-87 88.5t-31 135.5q0 59 17.5 105.5t50.5 80t79 51t103 17.5q76 0 132 -31t87 -88t31 -135q0 -59 -17.5 -106t-50.5 -80.5t-79 -51t-103 -17.5zM288 85q37 0 65 18t43.5 53.5t15.5 88.5q0 80 -34 119.5t-90 39.5q-37 0 -65 -17.5t-43.5 -53
t-15.5 -88.5q0 -79 34 -119.5t90 -40.5zM168 708q-20 0 -31 10t-11 27q0 18 11 27.5t31 9.5h240q20 0 31 -9.5t11 -27.5q0 -17 -11 -27t-31 -10h-240zM147 549q-14 1 -21.5 11t-3.5 26q10 37 36.5 56t63.5 19q27 0 49 -11t41.5 -22t38.5 -11q15 0 27 5.5t17 18.5
q5 11 13.5 17t21.5 5q14 -1 22 -10.5t3 -26.5q-10 -37 -36.5 -56t-63.5 -19q-27 0 -49.5 11t-41.5 22t-38 11q-15 0 -27 -5.5t-17 -18.5q-4 -11 -12.5 -17t-22.5 -5z" />
    <glyph glyph-name="uni0230" unicode="&#x230;" horiz-adv-x="785" 
d="M393 -10q-102 0 -178.5 45t-118.5 126.5t-42 191.5q0 83 24 149.5t68.5 114t107 73t139.5 25.5q103 0 179 -44.5t118 -125.5t42 -191q0 -83 -24 -150t-68.5 -115t-107 -73.5t-139.5 -25.5zM393 100q65 0 110.5 30t70 87t24.5 136q0 120 -53.5 186t-151.5 66
q-64 0 -110 -29.5t-70.5 -86t-24.5 -136.5q0 -119 54 -186t151 -67zM272 924q-20 0 -31 10t-11 27q0 18 11 27.5t31 9.5h240q20 0 31 -9.5t11 -27.5q0 -17 -11 -27t-31 -10h-240zM393 783q-29 0 -45.5 13t-16.5 36t16.5 35.5t45.5 12.5q30 0 46 -12.5t16 -35.5t-16 -36
t-46 -13z" />
    <glyph glyph-name="uni0231" unicode="&#x231;" horiz-adv-x="576" 
d="M288 -10q-76 0 -132 31t-87 88.5t-31 135.5q0 59 17.5 105.5t50.5 80t79 51t103 17.5q76 0 132 -31t87 -88t31 -135q0 -59 -17.5 -106t-50.5 -80.5t-79 -51t-103 -17.5zM288 85q37 0 65 18t43.5 53.5t15.5 88.5q0 80 -34 119.5t-90 39.5q-37 0 -65 -17.5t-43.5 -53
t-15.5 -88.5q0 -79 34 -119.5t90 -40.5zM168 708q-20 0 -31 10t-11 27q0 18 11 27.5t31 9.5h240q20 0 31 -9.5t11 -27.5q0 -17 -11 -27t-31 -10h-240zM289 567q-29 0 -45.5 13t-16.5 36t16.5 35.5t45.5 12.5q30 0 46 -12.5t16 -35.5t-16 -36t-46 -13z" />
    <glyph glyph-name="uni0232" unicode="&#x232;" horiz-adv-x="618" 
d="M309 -8q-31 0 -47.5 17.5t-16.5 49.5v304l27 -77l-241 339q-13 18 -11.5 38.5t16.5 35t42 14.5q20 0 36.5 -10t31.5 -31l179 -254h-28l180 254q16 22 31 31.5t37 9.5q26 0 40.5 -13.5t15 -33.5t-14.5 -42l-239 -338l26 77v-304q0 -67 -64 -67zM171 806q-39 0 -39 37
q0 18 10 27.5t29 9.5h277q39 0 39 -37q0 -17 -10 -27t-29 -10h-277z" />
    <glyph glyph-name="uni0233" unicode="&#x233;" horiz-adv-x="526" 
d="M189 -188q-22 0 -36 11.5t-16.5 30.5t6.5 40l68 151v-52l-182 421q-9 22 -6 41t18.5 30.5t42.5 11.5q23 0 37 -10.5t25 -39.5l135 -337h-30l138 338q11 28 26 38.5t40 10.5q22 0 35 -11.5t16 -30t-7 -40.5l-243 -555q-13 -28 -28 -38t-39 -10zM141 616q-39 0 -39 37
q0 18 10 27.5t29 9.5h247q39 0 39 -37q0 -17 -10 -27t-29 -10h-247z" />
    <glyph glyph-name="uni0237" unicode="&#x237;" horiz-adv-x="259" 
d="M5 -189q-22 -2 -36 6.5t-19.5 21.5t-3.5 27t11.5 24.5t25.5 11.5q45 4 65.5 25.5t20.5 65.5v441q0 31 16.5 47t46.5 16t46 -16t16 -47v-430q0 -64 -20.5 -105t-62 -62t-106.5 -26z" />
    <glyph glyph-name="uni0253" unicode="&#x253;" 
d="M347 -10q-62 0 -108.5 31t-61.5 83l11 25v-73q0 -31 -16 -47.5t-45 -16.5q-30 0 -46 16.5t-16 47.5v465q0 89 49 141.5t143 52.5q42 0 59 -14t17 -37q0 -24 -9 -38t-26 -12q-5 1 -11.5 1.5t-15.5 0.5q-37 0 -59 -23.5t-22 -70.5v-132h-12q16 49 62 79t107 30
q65 0 113 -31t75 -87.5t27 -135.5q0 -78 -27 -135.5t-75.5 -88.5t-112.5 -31zM312 85q37 0 65 18t43.5 53.5t15.5 88.5q0 80 -34 119.5t-90 39.5q-37 0 -65 -17.5t-43.5 -53t-15.5 -88.5q0 -79 34 -119.5t90 -40.5z" />
    <glyph glyph-name="uni0257" unicode="&#x257;" 
d="M253 -10q-64 0 -112.5 31t-75.5 88.5t-27 135.5q0 79 27 135.5t75.5 87.5t112.5 31q61 0 106.5 -30t61.5 -79h-11v131q0 89 49 141.5t143 52.5q42 0 59 -14t17 -37q0 -24 -9 -38t-26 -12q-5 1 -11.5 1.5t-15.5 0.5q-37 0 -59 -23.5t-22 -70.5v-466q0 -31 -16 -47.5
t-46 -16.5t-46 16.5t-16 47.5v78l11 -30q-15 -52 -61 -83t-108 -31zM288 86q37 0 65 17.5t43.5 53t15.5 88.5q0 80 -34 119.5t-90 39.5q-37 0 -65 -17.5t-43.5 -53t-15.5 -88.5q0 -79 34 -119t90 -40z" />
    <glyph glyph-name="uni0259" unicode="&#x259;" horiz-adv-x="543" 
d="M262 -10q-72 0 -122.5 29t-77.5 84.5t-27 132.5q0 18 12.5 27.5t35.5 9.5h321v-72h-281l20 15q1 -45 13.5 -76.5t38 -48t64.5 -16.5q42 0 70.5 19.5t43 55.5t14.5 84v7q0 83 -38.5 123t-113.5 40q-25 0 -57.5 -6.5t-61.5 -23.5q-21 -12 -37 -10.5t-25.5 11.5t-11.5 25
t5 30t25 26q35 22 80.5 32.5t84.5 10.5q83 0 143 -31t92.5 -88t32.5 -135q0 -75 -31 -132.5t-85.5 -90t-126.5 -32.5z" />
    <glyph glyph-name="uni0292" unicode="&#x292;" horiz-adv-x="516" 
d="M233 -190q-60 0 -109.5 11t-89.5 33q-18 10 -24.5 24.5t-4.5 29.5t11.5 26t23.5 14t31 -7q30 -17 67 -26.5t80 -9.5q73 0 109 30.5t36 88.5q0 53 -36 81.5t-106 28.5h-69q-19 0 -28 11t-6.5 27t16.5 31l209 217v-29h-268q-25 0 -38 12.5t-13 36.5q0 49 51 49h335
q21 0 34 -9.5t17.5 -25t-0.5 -33t-20 -32.5l-191 -199l-40 29h59q69 0 117.5 -22.5t74.5 -64t26 -100.5q0 -68 -31 -118t-88 -77t-135 -27z" />
    <glyph glyph-name="uni02B9" unicode="&#x2b9;" horiz-adv-x="243" 
d="M122 407q-18 0 -31 12t-15 36l-20 185q-4 32 15.5 52.5t50.5 20.5q30 0 49.5 -20t15.5 -53l-19 -185q-2 -24 -14.5 -36t-31.5 -12z" />
    <glyph glyph-name="uni02BA" unicode="&#x2ba;" horiz-adv-x="448" 
d="M122 407q-18 0 -31.5 13t-15.5 35l-19 185q-3 31 16 52t50 21q20 0 35.5 -9.5t23.5 -26t6 -37.5l-19 -185q-2 -22 -14.5 -35t-31.5 -13zM327 407q-18 0 -31.5 13t-15.5 35l-19 185q-3 31 16 52t50 21q20 0 35.5 -9.5t23.5 -26t6 -37.5l-19 -185q-2 -22 -14.5 -35
t-31.5 -13z" />
    <glyph glyph-name="uni02BB" unicode="&#x2bb;" horiz-adv-x="500" 
d="M251 558q-33 0 -50.5 17.5t-17.5 51.5q0 21 4.5 43t13.5 43t23 38q10 12 22.5 14t22 -4.5t11.5 -18t-9 -26.5q-10 -14 -15 -31t-5 -31l-3 21q34 0 52 -15t18 -44q0 -28 -17.5 -43t-49.5 -15z" />
    <glyph glyph-name="uni02BC" unicode="&#x2bc;" horiz-adv-x="350" 
d="M201 583q-10 -12 -22.5 -14t-22 4t-11 17.5t8.5 26.5t15 32t5 30l3 -21q-34 0 -52 15.5t-18 43.5t17.5 43.5t49.5 15.5q33 0 50.5 -17t17.5 -52q0 -21 -4.5 -43.5t-13.5 -43t-23 -37.5z" />
    <glyph glyph-name="uni02BE" unicode="&#x2be;" horiz-adv-x="500" 
d="M280 555q-17 -4 -27 3t-10 20q0 14 7.5 20t21.5 13q13 6 20 18t7 27t-7 27t-20 18q-14 7 -21.5 13t-7.5 20q0 13 10 20.5t27 2.5q35 -9 56 -37.5t21 -63.5t-21 -63.5t-56 -37.5z" />
    <glyph glyph-name="uni02BF" unicode="&#x2bf;" horiz-adv-x="500" 
d="M221 555q-35 9 -56 37.5t-21 63.5t21 63.5t56 37.5q17 5 27 -2.5t10 -20.5q0 -14 -7.5 -20t-21.5 -13q-13 -6 -20 -18t-7 -27t7 -27t20 -18q14 -7 21.5 -13t7.5 -20q0 -13 -10 -20t-27 -3z" />
    <glyph glyph-name="circumflex" unicode="&#x2c6;" horiz-adv-x="494" 
d="M389 597q9 -16 4 -29t-17 -19.5t-25.5 -4.5t-22.5 16l-81 126l-81 -126q-9 -14 -22.5 -16t-25.5 4.5t-17 19.5t4 29l72 132q12 23 29.5 34t40.5 11t41 -11t30 -34z" />
    <glyph glyph-name="caron" unicode="&#x2c7;" horiz-adv-x="494" 
d="M247 536q-23 0 -40.5 12.5t-29.5 34.5l-72 131q-9 16 -4 29t17 19.5t25.5 4.5t22.5 -16l81 -126l81 126q9 14 22.5 16t25.5 -4.5t17 -19.5t-4 -29l-71 -131q-12 -22 -30 -34.5t-41 -12.5z" />
    <glyph glyph-name="uni02C8" unicode="&#x2c8;" horiz-adv-x="500" 
d="M250 586q-19 0 -29.5 11t-10.5 31v135q0 42 40 42q20 0 30 -11t10 -31v-135q0 -42 -40 -42z" />
    <glyph glyph-name="uni02C9" unicode="&#x2c9;" horiz-adv-x="500" 
d="M124 616q-39 0 -39 37q0 18 10 27.5t29 9.5h253q39 0 39 -37q0 -17 -10 -27t-29 -10h-253z" />
    <glyph glyph-name="uni02CA" unicode="&#x2ca;" horiz-adv-x="500" 
d="M297 561q-10 -14 -24 -16.5t-27 4.5t-18.5 20t2.5 29l76 149q9 19 24 24.5t31 1.5t27.5 -15t14 -26.5t-9.5 -32.5z" />
    <glyph glyph-name="uni02CB" unicode="&#x2cb;" horiz-adv-x="500" 
d="M204 560l-97 140q-11 16 -8.5 31.5t14 26.5t27 15t31 -1.5t24.5 -24.5l75 -149q8 -16 3 -29t-18 -20t-27 -5t-24 16z" />
    <glyph glyph-name="uni02CC" unicode="&#x2cc;" horiz-adv-x="500" 
d="M250 -278q-19 0 -29.5 11t-10.5 31v135q0 42 40 42q20 0 30 -11t10 -31v-135q0 -42 -40 -42z" />
    <glyph glyph-name="breve" unicode="&#x2d8;" horiz-adv-x="528" 
d="M264 551q-47 0 -81 20.5t-54.5 56t-27.5 79.5q-3 20 6.5 32.5t25.5 13.5q17 1 27.5 -8t13.5 -28q8 -45 32 -67.5t58 -22.5t58.5 22.5t31.5 67.5q3 19 14 28t27 8q17 -1 26 -13.5t6 -32.5q-6 -44 -27 -79.5t-55 -56t-81 -20.5z" />
    <glyph glyph-name="dotaccent" unicode="&#x2d9;" horiz-adv-x="331" 
d="M165 593q-31 0 -48 16.5t-17 46.5t17 46t48 16q32 0 49 -16t17 -46q0 -31 -17 -47t-49 -16z" />
    <glyph glyph-name="ring" unicode="&#x2da;" horiz-adv-x="452" 
d="M226 546q-35 0 -64 16.5t-45.5 44.5t-16.5 62q0 35 16.5 62.5t45.5 43.5t64 16q36 0 64.5 -16t45 -43.5t16.5 -62.5q0 -34 -16.5 -62t-45 -44.5t-64.5 -16.5zM226 603q29 0 47 19t18 47t-18 46.5t-47 18.5q-28 0 -46.5 -18.5t-18.5 -46.5t18.5 -47t46.5 -19z" />
    <glyph glyph-name="ogonek" unicode="&#x2db;" horiz-adv-x="406" 
d="M218 -195q-55 0 -86.5 28t-31.5 76q0 42 28 78t74 55l37 -42q-16 -7 -30 -18.5t-22 -26.5t-8 -32q0 -25 16 -38t40 -13q7 0 14.5 1t15.5 3q18 5 28 -1.5t12.5 -19t-3.5 -24t-21 -17.5q-16 -6 -32.5 -7.5t-30.5 -1.5z" />
    <glyph glyph-name="tilde" unicode="&#x2dc;" horiz-adv-x="582" 
d="M128 581q-15 1 -23 10t-4 28q4 21 12.5 41.5t22.5 37.5t34 27.5t47 10.5q25 0 44 -10t35 -23t32 -23t35 -10q21 0 36.5 14.5t19.5 36.5q2 11 10.5 17t24.5 5q15 -1 23 -10t4 -28q-5 -27 -19 -54t-37.5 -45t-59.5 -18q-25 0 -44 10t-35.5 23t-32.5 23t-34 10
q-21 0 -36 -14t-20 -37q-2 -11 -10.5 -17t-24.5 -5z" />
    <glyph glyph-name="hungarumlaut" unicode="&#x2dd;" horiz-adv-x="483" 
d="M313 564q-6 -13 -17.5 -18t-23.5 -1.5t-19 13.5t-3 25l37 153q5 20 18 29t28.5 9t28.5 -7.5t18.5 -21.5t-2.5 -33zM164 564q-6 -13 -17.5 -18t-23.5 -1.5t-19 13.5t-3 25l38 153q5 19 18 28.5t28.5 9.5t28.5 -8t18 -21.5t-3 -32.5z" />
    <glyph glyph-name="gravecomb" unicode="&#x300;" horiz-adv-x="0" 
d="M-46 560l-97 140q-11 17 -8.5 32t14 26t27 15t31 -1.5t24.5 -24.5l75 -149q8 -16 3 -29t-18 -20t-27 -5t-24 16z" />
    <glyph glyph-name="acutecomb" unicode="&#x301;" horiz-adv-x="0" 
d="M47 560q-10 -14 -24 -16t-27 5t-18.5 20t2.5 29l76 149q9 19 24 24.5t31 1.5t27.5 -15t14 -26.5t-8.5 -31.5z" />
    <glyph glyph-name="uni0302" unicode="&#x302;" horiz-adv-x="0" 
d="M142 597q9 -16 4 -29t-17 -19.5t-25.5 -4.5t-22.5 16l-81 126l-81 -126q-9 -14 -22.5 -16t-25.5 4.5t-17 19.5t4 29l72 132q12 23 29.5 34t40.5 11t41 -11t30 -34z" />
    <glyph glyph-name="tildecomb" unicode="&#x303;" horiz-adv-x="0" 
d="M-163 581q-15 1 -23 10t-4 28q4 21 12.5 41.5t22.5 37.5t34 27.5t47 10.5q25 0 44 -10t35 -23t32 -23t35 -10q21 0 36.5 14.5t19.5 36.5q2 11 10.5 17t24.5 5q15 -1 23 -10t4 -28q-5 -27 -19 -54t-37.5 -45t-59.5 -18q-25 0 -44 10t-35.5 23t-32.5 23t-34 10
q-21 0 -36 -14t-20 -37q-2 -11 -10.5 -17t-24.5 -5z" />
    <glyph glyph-name="uni0304" unicode="&#x304;" horiz-adv-x="0" 
d="M-123 616q-39 0 -39 37q0 18 10 27.5t29 9.5h247q39 0 39 -37q0 -17 -10 -27t-29 -10h-247z" />
    <glyph glyph-name="uni0306" unicode="&#x306;" horiz-adv-x="0" 
d="M0 551q-47 0 -81 20.5t-54.5 56t-27.5 79.5q-3 20 6.5 32.5t25.5 13.5q17 1 27.5 -8t13.5 -28q8 -45 32 -67.5t58 -22.5t58.5 22.5t31.5 67.5q3 19 14 28t27 8q17 -1 26 -13.5t6 -32.5q-6 -44 -27 -79.5t-55 -56t-81 -20.5z" />
    <glyph glyph-name="uni0307" unicode="&#x307;" horiz-adv-x="0" 
d="M0 593q-31 0 -48 16.5t-17 46.5t17 46t48 16q32 0 49 -16t17 -46q0 -31 -17 -47t-49 -16z" />
    <glyph glyph-name="uni0308" unicode="&#x308;" horiz-adv-x="0" 
d="M95 593q-30 0 -46 16t-16 46q0 29 16 45t46 16q29 0 45 -16t16 -45q0 -30 -15.5 -46t-45.5 -16zM-94 593q-29 0 -45.5 16t-16.5 46q0 29 16.5 45t45.5 16q30 0 46 -16t16 -45q0 -30 -16 -46t-46 -16z" />
    <glyph glyph-name="hookabovecomb" unicode="&#x309;" horiz-adv-x="0" 
d="M0 546q-18 0 -28 7t-10 20q0 22 8.5 36.5t19.5 25t19.5 20t8.5 22.5t-10 19t-30 6q-8 0 -17 -1t-19 -4q-17 -5 -26.5 -2.5t-14.5 15.5q-5 14 -0.5 24.5t21.5 17.5q18 7 39.5 10t44.5 3q50 0 78.5 -18.5t28.5 -53.5q0 -25 -11.5 -40.5t-26 -26.5t-26 -23.5t-11.5 -31.5
q0 -12 -9.5 -18.5t-28.5 -6.5z" />
    <glyph glyph-name="uni030A" unicode="&#x30a;" horiz-adv-x="0" 
d="M0 546q-35 0 -64 16.5t-45.5 44.5t-16.5 62q0 35 16.5 62.5t45.5 43.5t64 16q36 0 64.5 -16t45 -43.5t16.5 -62.5q0 -34 -16.5 -62t-45 -44.5t-64.5 -16.5zM0 603q29 0 47 19t18 47t-18 46.5t-47 18.5q-28 0 -46.5 -18.5t-18.5 -46.5t18.5 -47t46.5 -19z" />
    <glyph glyph-name="uni030B" unicode="&#x30b;" horiz-adv-x="0" 
d="M110 564q-6 -13 -17.5 -18t-23.5 -1.5t-19 13.5t-3 25l37 153q5 20 18 29t28.5 9t28.5 -7.5t18.5 -21.5t-2.5 -33zM-39 564q-6 -13 -17.5 -18t-23.5 -1.5t-19 13.5t-3 25l38 153q5 19 18 28.5t28.5 9.5t28.5 -8t18 -21.5t-3 -32.5z" />
    <glyph glyph-name="uni030C" unicode="&#x30c;" horiz-adv-x="0" 
d="M0 536q-23 0 -40.5 12.5t-29.5 34.5l-72 131q-9 16 -4 29t17 19.5t25.5 4.5t22.5 -16l81 -126l81 126q9 14 22.5 16t25.5 -4.5t17 -19.5t-4 -29l-71 -131q-12 -22 -30 -34.5t-41 -12.5z" />
    <glyph glyph-name="uni030F" unicode="&#x30f;" horiz-adv-x="0" 
d="M39 564l-65 148q-8 19 -3 33t18 21.5t29 7.5t29 -9t18 -29l37 -153q4 -15 -3 -25t-19 -13.5t-23.5 1.5t-17.5 18zM-109 564l-65 148q-8 19 -3 33t18 21.5t28.5 7.5t28.5 -9t18 -29l38 -153q4 -15 -3 -25t-19 -13.5t-23.5 1.5t-17.5 18z" />
    <glyph glyph-name="uni0311" unicode="&#x311;" horiz-adv-x="0" 
d="M-131 549q-16 1 -25.5 13.5t-6.5 32.5q7 45 27.5 80t54.5 55.5t81 20.5t81 -20.5t55 -55.5t27 -80q3 -20 -6 -32.5t-26 -13.5q-16 -1 -27 8t-14 28q-7 45 -31.5 67.5t-58.5 22.5t-58 -22.5t-32 -67.5q-3 -19 -13.5 -28t-27.5 -8z" />
    <glyph glyph-name="uni0312" unicode="&#x312;" horiz-adv-x="0" 
d="M1 558q-33 0 -50.5 17.5t-17.5 51.5q0 21 4.5 43t13.5 43t23 38q10 12 22.5 14t22 -4.5t11.5 -18t-9 -26.5q-10 -14 -15 -31t-5 -31l-3 21q34 0 52 -15t18 -44q0 -28 -17.5 -43t-49.5 -15z" />
    </font>
</defs>
</svg>
